  0
SECTION
  2
HEADER
  9
$ACADVER
  1
AC1015
  9
$ACADMAINTVER
 70
    13
  9
$DWGCODEPAGE
  3
ANSI_1252
  9
$INSBASE
 10
-830.2967280856785
 20
323.9081186841051
 30
0.0
  9
$EXTMIN
 10
-1050.359023872533
 20
-3022.393583637092
 30
-0.0000000000000058
  9
$EXTMAX
 10
1295.691464126179
 20
-1793.379738189172
 30
0.0000000000000104
  9
$LIMMIN
 10
0.0
 20
0.0
  9
$LIMMAX
 10
1.5
 20
1.0
  9
$ORTHOMODE
 70
     1
  9
$REGENMODE
 70
     1
  9
$FILLMODE
 70
     1
  9
$QTEXTMODE
 70
     0
  9
$MIRRTEXT
 70
     1
  9
$LTSCALE
 40
1.0
  9
$ATTMODE
 70
     1
  9
$TEXTSIZE
 40
2.0
  9
$TRACEWID
 40
0.05
  9
$TEXTSTYLE
  7
Standard
  9
$CLAYER
  8
0
  9
$CELTYPE
  6
ByLayer
  9
$CECOLOR
 62
   256
  9
$CELTSCALE
 40
1.0
  9
$DISPSILH
 70
     0
  9
$DIMSCALE
 40
1000.0
  9
$DIMASZ
 40
0.000035
  9
$DIMEXO
 40
0.00001
  9
$DIMDLI
 40
0.000001
  9
$DIMRND
 40
0.0
  9
$DIMDLE
 40
0.0
  9
$DIMEXE
 40
0.00001
  9
$DIMTP
 40
0.0
  9
$DIMTM
 40
0.0
  9
$DIMTXT
 40
0.000035
  9
$DIMCEN
 40
-0.0003
  9
$DIMTSZ
 40
0.0
  9
$DIMTOL
 70
     0
  9
$DIMLIM
 70
     0
  9
$DIMTIH
 70
     1
  9
$DIMTOH
 70
     1
  9
$DIMSE1
 70
     1
  9
$DIMSE2
 70
     1
  9
$DIMTAD
 70
     0
  9
$DIMZIN
 70
     1
  9
$DIMBLK
  1
DotSmall
  9
$DIMASO
 70
     1
  9
$DIMSHO
 70
     1
  9
$DIMPOST
  1

  9
$DIMAPOST
  1

  9
$DIMALT
 70
     0
  9
$DIMALTD
 70
     3
  9
$DIMALTF
 40
0.03937007874016
  9
$DIMLFAC
 40
1000.0
  9
$DIMTOFL
 70
     1
  9
$DIMTVP
 40
0.0
  9
$DIMTIX
 70
     0
  9
$DIMSOXD
 70
     0
  9
$DIMSAH
 70
     0
  9
$DIMBLK1
  1

  9
$DIMBLK2
  1

  9
$DIMSTYLE
  2
INT10mm
  9
$DIMCLRD
 70
     0
  9
$DIMCLRE
 70
     0
  9
$DIMCLRT
 70
     1
  9
$DIMTFAC
 40
1.0
  9
$DIMGAP
 40
0.00001
  9
$DIMJUST
 70
     0
  9
$DIMSD1
 70
     0
  9
$DIMSD2
 70
     0
  9
$DIMTOLJ
 70
     0
  9
$DIMTZIN
 70
     8
  9
$DIMALTZ
 70
     0
  9
$DIMALTTZ
 70
     0
  9
$DIMUPT
 70
     0
  9
$DIMDEC
 70
     0
  9
$DIMTDEC
 70
     0
  9
$DIMALTU
 70
     2
  9
$DIMALTTD
 70
     3
  9
$DIMTXSTY
  7
promans
  9
$DIMAUNIT
 70
     0
  9
$DIMADEC
 70
     0
  9
$DIMALTRND
 40
0.0
  9
$DIMAZIN
 70
     0
  9
$DIMDSEP
 70
    46
  9
$DIMATFIT
 70
     2
  9
$DIMFRAC
 70
     0
  9
$DIMLDRBLK
  1
DotSmall
  9
$DIMLUNIT
 70
     2
  9
$DIMLWD
 70
    -2
  9
$DIMLWE
 70
    -2
  9
$DIMTMOVE
 70
     1
  9
$LUNITS
 70
     2
  9
$LUPREC
 70
     4
  9
$SKETCHINC
 40
0.1
  9
$FILLETRAD
 40
0.004
  9
$AUNITS
 70
     0
  9
$AUPREC
 70
     0
  9
$MENU
  1
.
  9
$ELEVATION
 40
0.0
  9
$PELEVATION
 40
0.0
  9
$THICKNESS
 40
0.0
  9
$LIMCHECK
 70
     0
  9
$CHAMFERA
 40
0.0
  9
$CHAMFERB
 40
0.0
  9
$CHAMFERC
 40
0.0
  9
$CHAMFERD
 40
0.0
  9
$SKPOLY
 70
     0
  9
$TDCREATE
 40
2452779.616638877
  9
$TDUCREATE
 40
2452779.574972210
  9
$TDUPDATE
 40
2453777.395789664
  9
$TDUUPDATE
 40
2453777.354122997
  9
$TDINDWG
 40
3.2980880093
  9
$TDUSRTIMER
 40
3.2980880093
  9
$USRTIMER
 70
     1
  9
$ANGBASE
 50
0.0
  9
$ANGDIR
 70
     0
  9
$PDMODE
 70
     3
  9
$PDSIZE
 40
10.0
  9
$PLINEWID
 40
0.0
  9
$SPLFRAME
 70
     0
  9
$SPLINETYPE
 70
     6
  9
$SPLINESEGS
 70
     8
  9
$HANDSEED
  5
16CAD
  9
$SURFTAB1
 70
     6
  9
$SURFTAB2
 70
     6
  9
$SURFTYPE
 70
     6
  9
$SURFU
 70
     6
  9
$SURFV
 70
     6
  9
$UCSBASE
  2

  9
$UCSNAME
  2

  9
$UCSORG
 10
-830.2967280856785
 20
323.9081186841051
 30
0.0
  9
$UCSXDIR
 10
1.0
 20
0.0
 30
0.0
  9
$UCSYDIR
 10
0.0
 20
1.0
 30
0.0
  9
$UCSORTHOREF
  2

  9
$UCSORTHOVIEW
 70
     0
  9
$UCSORGTOP
 10
0.0
 20
0.0
 30
0.0
  9
$UCSORGBOTTOM
 10
0.0
 20
0.0
 30
0.0
  9
$UCSORGLEFT
 10
0.0
 20
0.0
 30
0.0
  9
$UCSORGRIGHT
 10
0.0
 20
0.0
 30
0.0
  9
$UCSORGFRONT
 10
0.0
 20
0.0
 30
0.0
  9
$UCSORGBACK
 10
0.0
 20
0.0
 30
0.0
  9
$PUCSBASE
  2

  9
$PUCSNAME
  2

  9
$PUCSORG
 10
0.0
 20
0.0
 30
0.0
  9
$PUCSXDIR
 10
1.0
 20
0.0
 30
0.0
  9
$PUCSYDIR
 10
0.0
 20
1.0
 30
0.0
  9
$PUCSORTHOREF
  2

  9
$PUCSORTHOVIEW
 70
     0
  9
$PUCSORGTOP
 10
0.0
 20
0.0
 30
0.0
  9
$PUCSORGBOTTOM
 10
0.0
 20
0.0
 30
0.0
  9
$PUCSORGLEFT
 10
0.0
 20
0.0
 30
0.0
  9
$PUCSORGRIGHT
 10
0.0
 20
0.0
 30
0.0
  9
$PUCSORGFRONT
 10
0.0
 20
0.0
 30
0.0
  9
$PUCSORGBACK
 10
0.0
 20
0.0
 30
0.0
  9
$USERI1
 70
     0
  9
$USERI2
 70
     0
  9
$USERI3
 70
     0
  9
$USERI4
 70
     0
  9
$USERI5
 70
     0
  9
$USERR1
 40
0.0
  9
$USERR2
 40
0.0
  9
$USERR3
 40
0.0
  9
$USERR4
 40
0.0
  9
$USERR5
 40
0.0
  9
$WORLDVIEW
 70
     1
  9
$SHADEDGE
 70
     3
  9
$SHADEDIF
 70
    70
  9
$TILEMODE
 70
     1
  9
$MAXACTVP
 70
    64
  9
$PINSBASE
 10
0.0
 20
0.0
 30
0.0
  9
$PLIMCHECK
 70
     0
  9
$PEXTMIN
 10
0.0
 20
0.0
 30
0.0
  9
$PEXTMAX
 10
0.0
 20
0.0
 30
0.0
  9
$PLIMMIN
 10
0.0
 20
0.0
  9
$PLIMMAX
 10
12.0
 20
9.0
  9
$UNITMODE
 70
     0
  9
$VISRETAIN
 70
     1
  9
$PLINEGEN
 70
     0
  9
$PSLTSCALE
 70
     1
  9
$TREEDEPTH
 70
  3020
  9
$CMLSTYLE
  2
Standard
  9
$CMLJUST
 70
     0
  9
$CMLSCALE
 40
1.0
  9
$PROXYGRAPHICS
 70
     1
  9
$MEASUREMENT
 70
     0
  9
$CELWEIGHT
370
    -1
  9
$ENDCAPS
280
     0
  9
$JOINSTYLE
280
     0
  9
$LWDISPLAY
290
     0
  9
$INSUNITS
 70
     0
  9
$HYPERLINKBASE
  1

  9
$STYLESHEET
  1
flaminia.ctb
  9
$XEDIT
290
     1
  9
$CEPSNTYPE
380
     0
  9
$PSTYLEMODE
290
     1
  9
$FINGERPRINTGUID
  2
{8E2F4040-33AA-456B-B48C-3287923E584A}
  9
$VERSIONGUID
  2
{4F48B98D-1222-40D7-99D4-DC523BC5DA08}
  9
$EXTNAMES
290
     1
  9
$PSVPSCALE
 40
1.0
  9
$OLESTARTUP
290
     0
  0
ENDSEC
  0
SECTION
  2
CLASSES
  0
CLASS
  1
ACDBDICTIONARYWDFLT
  2
AcDbDictionaryWithDefault
  3
AutoCAD 2000
 90
        0
280
     0
281
     0
  0
CLASS
  1
ACDBPLACEHOLDER
  2
AcDbPlaceHolder
  3
AutoCAD 2000
 90
        0
280
     0
281
     0
  0
CLASS
  1
LAYOUT
  2
AcDbLayout
  3
AutoCAD 2000
 90
        0
280
     0
281
     0
  0
CLASS
  1
DICTIONARYVAR
  2
AcDbDictionaryVar
  3
AutoCAD 2000
 90
        0
280
     0
281
     0
  0
CLASS
  1
IMAGE
  2
AcDbRasterImage
  3
ISM
 90
    32895
280
     0
281
     1
  0
CLASS
  1
IMAGEDEF_REACTOR
  2
AcDbRasterImageDefReactor
  3
ISM
 90
    32769
280
     0
281
     0
  0
CLASS
  1
IMAGEDEF
  2
AcDbRasterImageDef
  3
ISM
 90
        0
280
     0
281
     0
  0
CLASS
  1
RASTERVARIABLES
  2
AcDbRasterVariables
  3
ISM
 90
        0
280
     0
281
     0
  0
CLASS
  1
SORTENTSTABLE
  2
AcDbSortentsTable
  3
AutoCAD 2000
 90
        0
280
     0
281
     0
  0
ENDSEC
  0
SECTION
  2
TABLES
  0
TABLE
  2
VPORT
  5
8
330
0
100
AcDbSymbolTable
 70
     3
  0
VPORT
  5
16CAC
330
8
100
AcDbSymbolTableRecord
100
AcDbViewportTableRecord
  2
*Active
 70
     0
 10
0.0
 20
0.0
 11
1.0
 21
1.0
 12
124.232828824596
 22
-2321.723875227872
 13
0.0
 23
0.0
 14
1.0
 24
1.0
 15
0.0
 25
0.0
 16
0.0
 26
0.0
 36
1.0
 17
0.0
 27
0.0
 37
0.0
 40
2179.526788890388
 41
1.514465408805031
 42
50.0
 43
0.0
 44
0.0
 50
0.0
 51
0.0
 71
     0
 72
  8000
 73
     1
 74
     1
 75
     0
 76
     0
 77
     0
 78
     0
281
     0
 65
     1
110
-830.2967280856785
120
323.9081186841051
130
0.0
111
1.0
121
0.0
131
0.0
112
0.0
122
1.0
132
0.0
 79
     0
146
0.0
  0
ENDTAB
  0
TABLE
  2
LTYPE
  5
5
330
0
100
AcDbSymbolTable
 70
     2
  0
LTYPE
  5
14
330
5
100
AcDbSymbolTableRecord
100
AcDbLinetypeTableRecord
  2
ByBlock
 70
     0
  3

 72
    65
 73
     0
 40
0.0
  0
LTYPE
  5
15
330
5
100
AcDbSymbolTableRecord
100
AcDbLinetypeTableRecord
  2
ByLayer
 70
     0
  3

 72
    65
 73
     0
 40
0.0
  0
LTYPE
  5
16
330
5
100
AcDbSymbolTableRecord
100
AcDbLinetypeTableRecord
  2
Continuous
 70
     0
  3
Solid line
 72
    65
 73
     0
 40
0.0
  0
LTYPE
  5
11D2C
330
5
100
AcDbSymbolTableRecord
100
AcDbLinetypeTableRecord
  2
NASCOSTA
 70
     0
  3
Nascosta __ __ __ __ __ __ __ __ __ __ __ __ __
 72
    65
 73
     2
 40
9.524999999999998
 49
6.349999999999999
 74
     0
 49
-3.174999999999999
 74
     0
  0
ENDTAB
  0
TABLE
  2
LAYER
  5
2
102
{ACAD_XDICTIONARY
360
12123
102
}
330
0
100
AcDbSymbolTable
 70
     6
  0
LAYER
  5
10
330
2
100
AcDbSymbolTableRecord
100
AcDbLayerTableRecord
  2
0
 70
     0
 62
     7
  6
Continuous
370
    -3
390
F
  0
LAYER
  5
81BC
330
2
100
AcDbSymbolTableRecord
100
AcDbLayerTableRecord
  2
Defpoints
 70
     0
 62
     7
  6
Continuous
290
     0
370
    -3
390
F
  0
LAYER
  5
14A15
330
2
100
AcDbSymbolTableRecord
100
AcDbLayerTableRecord
  2
dima
 70
     0
 62
     5
  6
Continuous
370
    -3
390
F
  0
LAYER
  5
168C6
330
2
100
AcDbSymbolTableRecord
100
AcDbLayerTableRecord
  2
flm_misure
 70
     0
 62
     3
  6
Continuous
370
     9
390
F
  0
ENDTAB
  0
TABLE
  2
STYLE
  5
3
330
0
100
AcDbSymbolTable
 70
     3
  0
STYLE
  5
11
330
3
100
AcDbSymbolTableRecord
100
AcDbTextStyleTableRecord
  2
Standard
 70
     0
 40
0.0
 41
1.0
 50
0.0
 71
     0
 42
2.0
  3
helr45w.TTF
  4

1001
ACAD
1000
Helvetica
1071
       34
  0
STYLE
  5
11D38
330
3
100
AcDbSymbolTableRecord
100
AcDbTextStyleTableRecord
  2
promans
 70
     0
 40
0.0
 41
1.0
 50
0.0
 71
     0
 42
2.5
  3
romans.shx
  4

  0
ENDTAB
  0
TABLE
  2
VIEW
  5
6
330
0
100
AcDbSymbolTable
 70
     0
  0
ENDTAB
  0
TABLE
  2
UCS
  5
7
330
0
100
AcDbSymbolTable
 70
     0
  0
ENDTAB
  0
TABLE
  2
APPID
  5
9
330
0
100
AcDbSymbolTable
 70
     2
  0
APPID
  5
12
330
9
100
AcDbSymbolTableRecord
100
AcDbRegAppTableRecord
  2
ACAD
 70
     0
  0
APPID
  5
DD20
330
9
100
AcDbSymbolTableRecord
100
AcDbRegAppTableRecord
  2
DCO15
 70
     0
  0
ENDTAB
  0
TABLE
  2
DIMSTYLE
  5
A
330
0
100
AcDbSymbolTable
 70
     3
100
AcDbDimStyleTable
 71
     2
340
11D3A
340
1151D
  0
DIMSTYLE
105
1151D
330
A
100
AcDbSymbolTableRecord
100
AcDbDimStyleTableRecord
  2
Standard
 70
     0
 41
3.0
 42
2.0
 43
0.3835
 44
4.0
140
3.0
147
0.5
340
11
  0
DIMSTYLE
105
11D3A
330
A
100
AcDbSymbolTableRecord
100
AcDbDimStyleTableRecord
  2
INT10mm
 70
     0
 40
1000.0
 41
0.000035
 42
0.00001
 43
0.000001
 44
0.00001
 75
     1
 76
     1
 78
     1
140
0.000035
141
-0.0003
143
0.03937007874016
144
1000.0
147
0.00001
171
     3
172
     1
178
     1
271
     0
272
     0
274
     3
279
     1
283
     0
284
     8
289
     2
340
11D38
341
14761
342
14761
  0
DIMSTYLE
105
168C7
102
{ACAD_REACTORS
330
16911
330
16935
330
169D7
330
16A03
330
16A68
330
16A85
330
16AA2
330
16AC7
330
16B54
330
16B81
102
}
330
A
100
AcDbSymbolTableRecord
100
AcDbDimStyleTableRecord
  2
flaminia
 70
     0
 41
20.0
 42
70.0
 43
0.0
 44
8.0
 46
8.0
140
24.0
147
10.0
176
   256
177
   256
178
     7
271
     0
272
     0
340
11
341
168B8
342
168B8
  0
ENDTAB
  0
TABLE
  2
BLOCK_RECORD
  5
1
330
0
100
AcDbSymbolTable
 70
    16
  0
BLOCK_RECORD
  5
1F
102
{ACAD_XDICTIONARY
360
9C12
102
}
330
1
100
AcDbSymbolTableRecord
100
AcDbBlockTableRecord
  2
*Model_Space
340
22
  0
BLOCK_RECORD
  5
1682A
330
1
100
AcDbSymbolTableRecord
100
AcDbBlockTableRecord
  2
*Paper_Space
340
1682B
  0
BLOCK_RECORD
  5
14761
330
1
100
AcDbSymbolTableRecord
100
AcDbBlockTableRecord
  2
_DotSmall
340
0
102
{BLKREFS
331
16C3A
331
16C3B
102
}
  0
BLOCK_RECORD
  5
168B8
330
1
100
AcDbSymbolTableRecord
100
AcDbBlockTableRecord
  2
_None
340
0
  0
BLOCK_RECORD
  5
16912
330
1
100
AcDbSymbolTableRecord
100
AcDbBlockTableRecord
  2
*D3
340
0
  0
BLOCK_RECORD
  5
16936
330
1
100
AcDbSymbolTableRecord
100
AcDbBlockTableRecord
  2
*D4
340
0
  0
BLOCK_RECORD
  5
169D8
330
1
100
AcDbSymbolTableRecord
100
AcDbBlockTableRecord
  2
*D5
340
0
  0
BLOCK_RECORD
  5
16A04
330
1
100
AcDbSymbolTableRecord
100
AcDbBlockTableRecord
  2
*D6
340
0
  0
BLOCK_RECORD
  5
16A69
330
1
100
AcDbSymbolTableRecord
100
AcDbBlockTableRecord
  2
*D7
340
0
  0
BLOCK_RECORD
  5
16A86
330
1
100
AcDbSymbolTableRecord
100
AcDbBlockTableRecord
  2
*D8
340
0
  0
BLOCK_RECORD
  5
16AA3
330
1
100
AcDbSymbolTableRecord
100
AcDbBlockTableRecord
  2
*D9
340
0
  0
BLOCK_RECORD
  5
16AC8
330
1
100
AcDbSymbolTableRecord
100
AcDbBlockTableRecord
  2
*D10
340
0
  0
BLOCK_RECORD
  5
16B55
330
1
100
AcDbSymbolTableRecord
100
AcDbBlockTableRecord
  2
*D11
340
0
  0
BLOCK_RECORD
  5
16B82
330
1
100
AcDbSymbolTableRecord
100
AcDbBlockTableRecord
  2
*D12
340
0
  0
ENDTAB
  0
ENDSEC
  0
SECTION
  2
BLOCKS
  0
BLOCK
  5
20
330
1F
100
AcDbEntity
  8
0
100
AcDbBlockBegin
  2
*Model_Space
 70
     0
 10
0.0
 20
0.0
 30
0.0
  3
*Model_Space
  1

  0
ENDBLK
  5
21
330
1F
100
AcDbEntity
  8
0
100
AcDbBlockEnd
  0
BLOCK
  5
1682C
330
1682A
100
AcDbEntity
 67
     1
  8
0
100
AcDbBlockBegin
  2
*Paper_Space
 70
     0
 10
0.0
 20
0.0
 30
0.0
  3
*Paper_Space
  1

  0
ENDBLK
  5
1682D
330
1682A
100
AcDbEntity
 67
     1
  8
0
100
AcDbBlockEnd
  0
BLOCK
  5
14763
330
14761
100
AcDbEntity
  8
0
100
AcDbBlockBegin
  2
_DotSmall
 70
     0
 10
0.0
 20
0.0
 30
0.0
  3
_DotSmall
  1

  0
LWPOLYLINE
  5
14762
330
14761
100
AcDbEntity
  8
0
  6
ByBlock
 62
     0
100
AcDbPolyline
 90
        2
 70
     1
 43
0.5
 10
-0.0625
 20
0.0
 42
1.0
 10
0.0625
 20
0.0
 42
1.0
  0
ENDBLK
  5
14764
330
14761
100
AcDbEntity
  8
0
100
AcDbBlockEnd
  0
BLOCK
  5
168B9
330
168B8
100
AcDbEntity
  8
0
100
AcDbBlockBegin
  2
_None
 70
     0
 10
0.0
 20
0.0
 30
0.0
  3
_None
  1

  0
ENDBLK
  5
168BA
330
168B8
100
AcDbEntity
  8
0
100
AcDbBlockEnd
  0
BLOCK
  5
1691B
330
16912
100
AcDbEntity
  8
0
100
AcDbBlockBegin
  2
*D3
 70
     1
 10
0.0
 20
0.0
 30
0.0
  3
*D3
  1

  0
LINE
  5
16BA8
330
16912
100
AcDbEntity
  8
flm_misure
370
    -2
100
AcDbLine
 10
-830.2967280856785
 20
-1841.02944586927
 30
0.0
 11
-830.2967280856785
 21
-1804.997319682064
 31
0.0
  0
LINE
  5
16BA9
330
16912
100
AcDbEntity
  8
flm_misure
370
    -2
100
AcDbLine
 10
1169.703271914321
 20
-1841.029445869269
 30
0.0
 11
1169.703271914321
 21
-1804.997319682064
 31
0.0
  0
LINE
  5
16BAA
330
16912
100
AcDbEntity
  8
flm_misure
370
    -2
100
AcDbLine
 10
-838.2967280856785
 20
-1812.997319682064
 30
0.0
 11
123.5644964041173
 21
-1812.997319682064
 31
0.0
  0
LINE
  5
16BAB
330
16912
100
AcDbEntity
  8
flm_misure
370
    -2
100
AcDbLine
 10
1177.703271914321
 20
-1812.997319682064
 30
0.0
 11
215.8420474245255
 21
-1812.997319682064
 31
0.0
  0
MTEXT
  5
16BAC
330
16912
100
AcDbEntity
  8
flm_misure
 62
     7
100
AcDbMText
 10
169.7032719143214
 20
-1812.997319682064
 30
0.0
 40
24.0
 41
0.0
 71
     5
 72
     1
  1
\A1;2000
 73
     1
 44
1.0
  0
POINT
  5
16BAD
330
16912
100
AcDbEntity
  8
Defpoints
 62
     0
100
AcDbPoint
 10
-830.2967280856785
 20
-1911.02944586927
 30
0.0
  0
POINT
  5
16BAE
330
16912
100
AcDbEntity
  8
Defpoints
 62
     0
100
AcDbPoint
 10
1169.703271914321
 20
-1911.029445869268
 30
0.0
  0
POINT
  5
16BAF
330
16912
100
AcDbEntity
  8
Defpoints
 62
     0
100
AcDbPoint
 10
1169.703271914321
 20
-1812.997319682064
 30
0.0
  0
ENDBLK
  5
1691C
330
16912
100
AcDbEntity
  8
0
100
AcDbBlockEnd
  0
BLOCK
  5
1693F
330
16936
100
AcDbEntity
  8
0
100
AcDbBlockBegin
  2
*D4
 70
     1
 10
0.0
 20
0.0
 30
0.0
  3
*D4
  1

  0
LINE
  5
16BB0
330
16936
100
AcDbEntity
  8
flm_misure
370
    -2
100
AcDbLine
 10
1239.703271914321
 20
-1911.02944586927
 30
0.0
 11
1275.735398101526
 21
-1911.02944586927
 31
0.0
  0
LINE
  5
16BB1
330
16936
100
AcDbEntity
  8
flm_misure
370
    -2
100
AcDbLine
 10
1239.703271914321
 20
-2811.02944586927
 30
0.0
 11
1275.735398101526
 21
-2811.02944586927
 31
0.0
  0
LINE
  5
16BB2
330
16936
100
AcDbEntity
  8
flm_misure
370
    -2
100
AcDbLine
 10
1267.735398101526
 20
-1903.02944586927
 30
0.0
 11
1267.735398101526
 21
-2338.711078522331
 31
0.0
  0
LINE
  5
16BB3
330
16936
100
AcDbEntity
  8
flm_misure
370
    -2
100
AcDbLine
 10
1267.735398101526
 20
-2819.02944586927
 30
0.0
 11
1267.735398101526
 21
-2383.347813216209
 31
0.0
  0
MTEXT
  5
16BB4
330
16936
100
AcDbEntity
  8
flm_misure
 62
     7
100
AcDbMText
 10
1267.735398101526
 20
-2361.02944586927
 30
0.0
 40
24.0
 41
0.0
 71
     5
 72
     1
  1
\A1;900
 73
     1
 44
1.0
  0
POINT
  5
16BB5
330
16936
100
AcDbEntity
  8
Defpoints
 62
     0
100
AcDbPoint
 10
1169.703271914321
 20
-1911.02944586927
 30
0.0
  0
POINT
  5
16BB6
330
16936
100
AcDbEntity
  8
Defpoints
 62
     0
100
AcDbPoint
 10
1169.703271914321
 20
-2811.02944586927
 30
0.0
  0
POINT
  5
16BB7
330
16936
100
AcDbEntity
  8
Defpoints
 62
     0
100
AcDbPoint
 10
1267.735398101526
 20
-2811.02944586927
 30
0.0
  0
ENDBLK
  5
16940
330
16936
100
AcDbEntity
  8
0
100
AcDbBlockEnd
  0
BLOCK
  5
169E1
330
169D8
100
AcDbEntity
  8
0
100
AcDbBlockBegin
  2
*D5
 70
     1
 10
0.0
 20
0.0
 30
0.0
  3
*D5
  1

  0
LINE
  5
16AFC
330
169D8
100
AcDbEntity
  8
flm_misure
370
    -2
100
AcDbLine
 10
-830.2967280856785
 20
-2831.02944586927
 30
0.0
 11
-830.2967280856785
 21
-2867.061572056476
 31
0.0
  0
LINE
  5
16AFD
330
169D8
100
AcDbEntity
  8
flm_misure
370
    -2
100
AcDbLine
 10
-641.2967280856785
 20
-2831.02944586927
 30
0.0
 11
-641.2967280856785
 21
-2867.061572056476
 31
0.0
  0
LINE
  5
16AFE
330
169D8
100
AcDbEntity
  8
flm_misure
370
    -2
100
AcDbLine
 10
-838.2967280856785
 20
-2859.061572056477
 30
0.0
 11
-771.2987689020049
 21
-2859.061572056477
 31
0.0
  0
LINE
  5
16AFF
330
169D8
100
AcDbEntity
  8
flm_misure
370
    -2
100
AcDbLine
 10
-633.2967280856784
 20
-2859.061572056477
 30
0.0
 11
-700.294687269352
 21
-2859.061572056477
 31
0.0
  0
MTEXT
  5
16B00
330
169D8
100
AcDbEntity
  8
flm_misure
 62
     7
100
AcDbMText
 10
-735.7967280856785
 20
-2859.061572056477
 30
0.0
 40
24.0
 41
0.0
 71
     5
 72
     1
  1
\A1;189
 73
     1
 44
1.0
  0
POINT
  5
16B01
330
169D8
100
AcDbEntity
  8
Defpoints
 62
     0
100
AcDbPoint
 10
-830.2967280856785
 20
-2761.029445869271
 30
0.0
  0
POINT
  5
16B02
330
169D8
100
AcDbEntity
  8
Defpoints
 62
     0
100
AcDbPoint
 10
-641.2967280856785
 20
-2761.029445869271
 30
0.0
  0
POINT
  5
16B03
330
169D8
100
AcDbEntity
  8
Defpoints
 62
     0
100
AcDbPoint
 10
-641.2967280856785
 20
-2859.061572056477
 30
0.0
  0
ENDBLK
  5
169E2
330
169D8
100
AcDbEntity
  8
0
100
AcDbBlockEnd
  0
BLOCK
  5
16A0D
330
16A04
100
AcDbEntity
  8
0
100
AcDbBlockBegin
  2
*D6
 70
     1
 10
0.0
 20
0.0
 30
0.0
  3
*D6
  1

  0
LINE
  5
16B14
330
16A04
100
AcDbEntity
  8
flm_misure
370
    -2
100
AcDbLine
 10
-830.2967280856785
 20
-2879.061572056476
 30
0.0
 11
-830.2967280856785
 21
-2915.093698243682
 31
0.0
  0
LINE
  5
16B15
330
16A04
100
AcDbEntity
  8
flm_misure
370
    -2
100
AcDbLine
 10
-411.2967280856785
 20
-2879.061572056476
 30
0.0
 11
-411.2967280856785
 21
-2915.093698243682
 31
0.0
  0
LINE
  5
16B16
330
16A04
100
AcDbEntity
  8
flm_misure
370
    -2
100
AcDbLine
 10
-838.2967280856785
 20
-2907.093698243682
 30
0.0
 11
-657.5722382897602
 21
-2907.093698243682
 31
0.0
  0
LINE
  5
16B17
330
16A04
100
AcDbEntity
  8
flm_misure
370
    -2
100
AcDbLine
 10
-403.2967280856785
 20
-2907.093698243682
 30
0.0
 11
-584.0212178815968
 21
-2907.093698243682
 31
0.0
  0
MTEXT
  5
16B18
330
16A04
100
AcDbEntity
  8
flm_misure
 62
     7
100
AcDbMText
 10
-620.7967280856784
 20
-2907.093698243682
 30
0.0
 40
24.0
 41
0.0
 71
     5
 72
     1
  1
\A1;419
 73
     1
 44
1.0
  0
POINT
  5
16B19
330
16A04
100
AcDbEntity
  8
Defpoints
 62
     0
100
AcDbPoint
 10
-830.2967280856785
 20
-2809.061572056476
 30
0.0
  0
POINT
  5
16B1A
330
16A04
100
AcDbEntity
  8
Defpoints
 62
     0
100
AcDbPoint
 10
-411.2967280856785
 20
-2809.061572056476
 30
0.0
  0
POINT
  5
16B1B
330
16A04
100
AcDbEntity
  8
Defpoints
 62
     0
100
AcDbPoint
 10
-411.2967280856785
 20
-2907.093698243682
 30
0.0
  0
ENDBLK
  5
16A0E
330
16A04
100
AcDbEntity
  8
0
100
AcDbBlockEnd
  0
BLOCK
  5
16A72
330
16A69
100
AcDbEntity
  8
0
100
AcDbBlockBegin
  2
*D7
 70
     1
 10
0.0
 20
0.0
 30
0.0
  3
*D7
  1

  0
LINE
  5
16B24
330
16A69
100
AcDbEntity
  8
flm_misure
370
    -2
100
AcDbLine
 10
-830.2967280856785
 20
-2927.093698243682
 30
0.0
 11
-830.2967280856785
 21
-2963.125824430888
 31
0.0
  0
LINE
  5
16B25
330
16A69
100
AcDbEntity
  8
flm_misure
370
    -2
100
AcDbLine
 10
750.7032719143214
 20
-2927.093698243685
 30
0.0
 11
750.7032719143214
 21
-2963.125824430888
 31
0.0
  0
LINE
  5
16B26
330
16A69
100
AcDbEntity
  8
flm_misure
370
    -2
100
AcDbLine
 10
-838.2967280856785
 20
-2955.125824430888
 30
0.0
 11
-82.00080971833157
 21
-2955.125824430888
 31
0.0
  0
LINE
  5
16B27
330
16A69
100
AcDbEntity
  8
flm_misure
370
    -2
100
AcDbLine
 10
758.7032719143214
 20
-2955.125824430888
 30
0.0
 11
2.407353546974533
 21
-2955.125824430888
 31
0.0
  0
MTEXT
  5
16B28
330
16A69
100
AcDbEntity
  8
flm_misure
 62
     7
100
AcDbMText
 10
-39.79672808567852
 20
-2955.125824430888
 30
0.0
 40
24.0
 41
0.0
 71
     5
 72
     1
  1
\A1;1581
 73
     1
 44
1.0
  0
POINT
  5
16B29
330
16A69
100
AcDbEntity
  8
Defpoints
 62
     0
100
AcDbPoint
 10
-830.2967280856785
 20
-2857.093698243682
 30
0.0
  0
POINT
  5
16B2A
330
16A69
100
AcDbEntity
  8
Defpoints
 62
     0
100
AcDbPoint
 10
750.7032719143214
 20
-2857.093698243685
 30
0.0
  0
POINT
  5
16B2B
330
16A69
100
AcDbEntity
  8
Defpoints
 62
     0
100
AcDbPoint
 10
750.7032719143214
 20
-2955.125824430888
 30
0.0
  0
ENDBLK
  5
16A73
330
16A69
100
AcDbEntity
  8
0
100
AcDbBlockEnd
  0
BLOCK
  5
16A8F
330
16A86
100
AcDbEntity
  8
0
100
AcDbBlockBegin
  2
*D8
 70
     1
 10
0.0
 20
0.0
 30
0.0
  3
*D8
  1

  0
LINE
  5
16B2C
330
16A86
100
AcDbEntity
  8
flm_misure
370
    -2
100
AcDbLine
 10
-830.2967280856785
 20
-2975.125824430888
 30
0.0
 11
-830.2967280856785
 21
-3011.157950618094
 31
0.0
  0
LINE
  5
16B2D
330
16A86
100
AcDbEntity
  8
flm_misure
370
    -2
100
AcDbLine
 10
980.7032719143215
 20
-2975.125824430891
 30
0.0
 11
980.7032719143215
 21
-3011.157950618094
 31
0.0
  0
LINE
  5
16B2E
330
16A86
100
AcDbEntity
  8
flm_misure
370
    -2
100
AcDbLine
 10
-838.2967280856785
 20
-3003.157950618094
 30
0.0
 11
32.99919028166842
 21
-3003.157950618094
 31
0.0
  0
LINE
  5
16B2F
330
16A86
100
AcDbEntity
  8
flm_misure
370
    -2
100
AcDbLine
 10
988.7032719143215
 20
-3003.157950618094
 30
0.0
 11
117.4073535469745
 21
-3003.157950618094
 31
0.0
  0
MTEXT
  5
16B30
330
16A86
100
AcDbEntity
  8
flm_misure
 62
     7
100
AcDbMText
 10
75.20327191432148
 20
-3003.157950618094
 30
0.0
 40
24.0
 41
0.0
 71
     5
 72
     1
  1
\A1;1811
 73
     1
 44
1.0
  0
POINT
  5
16B31
330
16A86
100
AcDbEntity
  8
Defpoints
 62
     0
100
AcDbPoint
 10
-830.2967280856785
 20
-2905.125824430888
 30
0.0
  0
POINT
  5
16B32
330
16A86
100
AcDbEntity
  8
Defpoints
 62
     0
100
AcDbPoint
 10
980.7032719143215
 20
-2905.125824430891
 30
0.0
  0
POINT
  5
16B33
330
16A86
100
AcDbEntity
  8
Defpoints
 62
     0
100
AcDbPoint
 10
980.7032719143215
 20
-3003.157950618094
 30
0.0
  0
ENDBLK
  5
16A90
330
16A86
100
AcDbEntity
  8
0
100
AcDbBlockEnd
  0
BLOCK
  5
16AAC
330
16AA3
100
AcDbEntity
  8
0
100
AcDbBlockBegin
  2
*D9
 70
     1
 10
0.0
 20
0.0
 30
0.0
  3
*D9
  1

  0
LINE
  5
16C28
330
16AA3
100
AcDbEntity
  8
flm_misure
370
    -2
100
AcDbLine
 10
-850.2967280856784
 20
-2052.530068001579
 30
0.0
 11
-886.3288542728835
 21
-2052.530068001579
 31
0.0
  0
LINE
  5
16C29
330
16AA3
100
AcDbEntity
  8
flm_misure
370
    -2
100
AcDbLine
 10
-850.2967280856784
 20
-1911.02944586927
 30
0.0
 11
-886.3288542728835
 21
-1911.02944586927
 31
0.0
  0
LINE
  5
16C2A
330
16AA3
100
AcDbEntity
  8
flm_misure
370
    -2
100
AcDbLine
 10
-878.3288542728834
 20
-2060.530068001579
 30
0.0
 11
-878.3288542728834
 21
-2003.779756935425
 31
0.0
  0
LINE
  5
16C2B
330
16AA3
100
AcDbEntity
  8
flm_misure
370
    -2
100
AcDbLine
 10
-878.3288542728834
 20
-1903.02944586927
 30
0.0
 11
-878.3288542728834
 21
-1959.779756935424
 31
0.0
  0
MTEXT
  5
16C2C
330
16AA3
100
AcDbEntity
  8
flm_misure
 62
     7
100
AcDbMText
 10
-878.3288542728831
 20
-1981.779756935425
 30
0.0
 40
24.0
 41
0.0
 71
     5
 72
     1
  1
\A1;142
 73
     1
 44
1.0
  0
POINT
  5
16C2D
330
16AA3
100
AcDbEntity
  8
Defpoints
 62
     0
100
AcDbPoint
 10
-780.2967280856785
 20
-2052.530068001579
 30
0.0
  0
POINT
  5
16C2E
330
16AA3
100
AcDbEntity
  8
Defpoints
 62
     0
100
AcDbPoint
 10
-780.2967280856785
 20
-1911.02944586927
 30
0.0
  0
POINT
  5
16C2F
330
16AA3
100
AcDbEntity
  8
Defpoints
 62
     0
100
AcDbPoint
 10
-878.3288542728834
 20
-1911.02944586927
 30
0.0
  0
ENDBLK
  5
16AAD
330
16AA3
100
AcDbEntity
  8
0
100
AcDbBlockEnd
  0
BLOCK
  5
16AD1
330
16AC8
100
AcDbEntity
  8
0
100
AcDbBlockBegin
  2
*D10
 70
     1
 10
0.0
 20
0.0
 30
0.0
  3
*D10
  1

  0
LINE
  5
16C20
330
16AC8
100
AcDbEntity
  8
flm_misure
370
    -2
100
AcDbLine
 10
-898.3288542728834
 20
-2204.418757327964
 30
0.0
 11
-934.3609804600886
 21
-2204.418757327964
 31
0.0
  0
LINE
  5
16C21
330
16AC8
100
AcDbEntity
  8
flm_misure
370
    -2
100
AcDbLine
 10
-898.3288542728836
 20
-1911.02944586927
 30
0.0
 11
-934.3609804600886
 21
-1911.02944586927
 31
0.0
  0
LINE
  5
16C22
330
16AC8
100
AcDbEntity
  8
flm_misure
370
    -2
100
AcDbLine
 10
-926.3609804600886
 20
-2212.418757327964
 30
0.0
 11
-926.3609804600886
 21
-2080.042468945556
 31
0.0
  0
LINE
  5
16C23
330
16AC8
100
AcDbEntity
  8
flm_misure
370
    -2
100
AcDbLine
 10
-926.3609804600886
 20
-1903.02944586927
 30
0.0
 11
-926.3609804600886
 21
-2035.405734251678
 31
0.0
  0
MTEXT
  5
16C24
330
16AC8
100
AcDbEntity
  8
flm_misure
 62
     7
100
AcDbMText
 10
-926.3609804600882
 20
-2057.724101598617
 30
0.0
 40
24.0
 41
0.0
 71
     5
 72
     1
  1
\A1;293
 73
     1
 44
1.0
  0
POINT
  5
16C25
330
16AC8
100
AcDbEntity
  8
Defpoints
 62
     0
100
AcDbPoint
 10
-828.3288542728834
 20
-2204.418757327964
 30
0.0
  0
POINT
  5
16C26
330
16AC8
100
AcDbEntity
  8
Defpoints
 62
     0
100
AcDbPoint
 10
-828.3288542728834
 20
-1911.02944586927
 30
0.0
  0
POINT
  5
16C27
330
16AC8
100
AcDbEntity
  8
Defpoints
 62
     0
100
AcDbPoint
 10
-926.3609804600886
 20
-1911.02944586927
 30
0.0
  0
ENDBLK
  5
16AD2
330
16AC8
100
AcDbEntity
  8
0
100
AcDbBlockEnd
  0
BLOCK
  5
16B5E
330
16B55
100
AcDbEntity
  8
0
100
AcDbBlockBegin
  2
*D11
 70
     1
 10
0.0
 20
0.0
 30
0.0
  3
*D11
  1

  0
LINE
  5
16C18
330
16B55
100
AcDbEntity
  8
flm_misure
370
    -2
100
AcDbLine
 10
-946.3609804600885
 20
-2517.640134410572
 30
0.0
 11
-982.3931066472935
 21
-2517.640134410572
 31
0.0
  0
LINE
  5
16C19
330
16B55
100
AcDbEntity
  8
flm_misure
370
    -2
100
AcDbLine
 10
-946.3609804600885
 20
-1911.02944586927
 30
0.0
 11
-982.3931066472935
 21
-1911.02944586927
 31
0.0
  0
LINE
  5
16C1A
330
16B55
100
AcDbEntity
  8
flm_misure
370
    -2
100
AcDbLine
 10
-974.3931066472937
 20
-2525.640134410572
 30
0.0
 11
-974.3931066472935
 21
-2236.65315748686
 31
0.0
  0
LINE
  5
16C1B
330
16B55
100
AcDbEntity
  8
flm_misure
370
    -2
100
AcDbLine
 10
-974.3931066472935
 20
-1903.02944586927
 30
0.0
 11
-974.3931066472935
 21
-2192.016422792983
 31
0.0
  0
MTEXT
  5
16C1C
330
16B55
100
AcDbEntity
  8
flm_misure
 62
     7
100
AcDbMText
 10
-974.3931066472931
 20
-2214.334790139921
 30
0.0
 40
24.0
 41
0.0
 71
     5
 72
     1
  1
\A1;607
 73
     1
 44
1.0
  0
POINT
  5
16C1D
330
16B55
100
AcDbEntity
  8
Defpoints
 62
     0
100
AcDbPoint
 10
-876.3609804600886
 20
-2517.640134410572
 30
0.0
  0
POINT
  5
16C1E
330
16B55
100
AcDbEntity
  8
Defpoints
 62
     0
100
AcDbPoint
 10
-876.3609804600886
 20
-1911.02944586927
 30
0.0
  0
POINT
  5
16C1F
330
16B55
100
AcDbEntity
  8
Defpoints
 62
     0
100
AcDbPoint
 10
-974.3931066472935
 20
-1911.02944586927
 30
0.0
  0
ENDBLK
  5
16B5F
330
16B55
100
AcDbEntity
  8
0
100
AcDbBlockEnd
  0
BLOCK
  5
16B8B
330
16B82
100
AcDbEntity
  8
0
100
AcDbBlockBegin
  2
*D12
 70
     1
 10
0.0
 20
0.0
 30
0.0
  3
*D12
  1

  0
LINE
  5
16C10
330
16B82
100
AcDbEntity
  8
flm_misure
370
    -2
100
AcDbLine
 10
-994.3931066472934
 20
-2669.528823736961
 30
0.0
 11
-1030.425232834498
 21
-2669.52882373696
 31
0.0
  0
LINE
  5
16C11
330
16B82
100
AcDbEntity
  8
flm_misure
370
    -2
100
AcDbLine
 10
-994.3931066472934
 20
-1911.02944586927
 30
0.0
 11
-1030.425232834498
 21
-1911.02944586927
 31
0.0
  0
LINE
  5
16C12
330
16B82
100
AcDbEntity
  8
flm_misure
370
    -2
100
AcDbLine
 10
-1022.425232834498
 20
-2677.528823736961
 30
0.0
 11
-1022.425232834498
 21
-2312.597502150054
 31
0.0
  0
LINE
  5
16C13
330
16B82
100
AcDbEntity
  8
flm_misure
370
    -2
100
AcDbLine
 10
-1022.425232834498
 20
-1903.02944586927
 30
0.0
 11
-1022.425232834498
 21
-2267.960767456177
 31
0.0
  0
MTEXT
  5
16C14
330
16B82
100
AcDbEntity
  8
flm_misure
 62
     7
100
AcDbMText
 10
-1022.425232834498
 20
-2290.279134803116
 30
0.0
 40
24.0
 41
0.0
 71
     5
 72
     1
  1
\A1;758
 73
     1
 44
1.0
  0
POINT
  5
16C15
330
16B82
100
AcDbEntity
  8
Defpoints
 62
     0
100
AcDbPoint
 10
-924.3931066472935
 20
-2669.528823736961
 30
0.0
  0
POINT
  5
16C16
330
16B82
100
AcDbEntity
  8
Defpoints
 62
     0
100
AcDbPoint
 10
-924.3931066472935
 20
-1911.02944586927
 30
0.0
  0
POINT
  5
16C17
330
16B82
100
AcDbEntity
  8
Defpoints
 62
     0
100
AcDbPoint
 10
-1022.425232834498
 20
-1911.02944586927
 30
0.0
  0
ENDBLK
  5
16B8C
330
16B82
100
AcDbEntity
  8
0
100
AcDbBlockEnd
  0
ENDSEC
  0
SECTION
  2
ENTITIES
  0
LINE
  5
1688C
330
1F
100
AcDbEntity
  8
dima
  6
NASCOSTA
 48
5.0
100
AcDbLine
 10
1169.703271914321
 20
-2361.02944586927
 30
0.0
 11
-830.2967280856785
 21
-2361.02944586927
 31
0.0
  0
LINE
  5
1688D
330
1F
100
AcDbEntity
  8
dima
  6
NASCOSTA
 48
5.0
100
AcDbLine
 10
169.7032719143214
 20
-2811.02944586927
 30
0.0
 11
169.7032719143214
 21
-1911.02944586927
 31
0.0
  0
LINE
  5
1688E
330
1F
100
AcDbEntity
  8
dima
100
AcDbLine
 10
1169.703271914321
 20
-2811.02944586927
 30
0.0
 11
1169.703271914321
 21
-1911.02944586927
 31
0.0
  0
LINE
  5
1688F
330
1F
100
AcDbEntity
  8
dima
100
AcDbLine
 10
-830.2967280856785
 20
-2811.02944586927
 30
0.0
 11
-830.2967280856785
 21
-1911.02944586927
 31
0.0
  0
LINE
  5
16890
330
1F
100
AcDbEntity
  8
dima
100
AcDbLine
 10
1169.703271914321
 20
-1911.02944586927
 30
0.0
 11
-830.2967280856785
 21
-1911.02944586927
 31
0.0
  0
LINE
  5
16891
330
1F
100
AcDbEntity
  8
dima
100
AcDbLine
 10
1169.703271914321
 20
-2811.02944586927
 30
0.0
 11
-830.2967280856785
 21
-2811.02944586927
 31
0.0
  0
ELLIPSE
  5
16892
330
1F
100
AcDbEntity
  8
dima
 62
     1
100
AcDbEllipse
 10
169.7032719143215
 20
-2361.02944586927
 30
0.0
 11
861.0
 21
0.0
 31
0.0
210
0.0
220
0.0
230
1.0
 40
0.4599303135888503
 41
0.0
 42
6.283185307179586
  0
MTEXT
  5
1689B
330
1F
100
AcDbEntity
  8
dima
 62
     0
100
AcDbMText
 10
83.16938336091064
 20
-2252.816672435228
 30
0.0
 40
40.0
 41
143.4618
 71
     1
 72
     5
  1
alto/up
 73
     1
 44
1.0
  0
POINT
  5
168A6
330
1F
100
AcDbEntity
  8
dima
 62
     7
100
AcDbPoint
 10
169.7032719143214
 20
-2361.02944586927
 30
0.0
  0
DIMENSION
  5
16911
330
1F
100
AcDbEntity
  8
flm_misure
100
AcDbDimension
  2
*D3
 10
1169.703271914321
 20
-1812.997319682064
 30
0.0
 11
169.7032719143214
 21
-1812.997319682064
 31
0.0
 70
    32
 71
     5
 42
2000.0
  3
flaminia
100
AcDbAlignedDimension
 13
-830.2967280856785
 23
-1911.02944586927
 33
0.0
 14
1169.703271914321
 24
-1911.029445869268
 34
0.0
100
AcDbRotatedDimension
  0
DIMENSION
  5
16935
330
1F
100
AcDbEntity
  8
flm_misure
100
AcDbDimension
  2
*D4
 10
1267.735398101526
 20
-2811.02944586927
 30
0.0
 11
1267.735398101526
 21
-2361.02944586927
 31
0.0
 70
    32
 71
     5
 42
900.0
  3
flaminia
100
AcDbAlignedDimension
 13
1169.703271914321
 23
-1911.02944586927
 33
0.0
 14
1169.703271914321
 24
-2811.02944586927
 34
0.0
 50
270.0
100
AcDbRotatedDimension
  0
POINT
  5
16961
330
1F
100
AcDbEntity
  8
0
100
AcDbPoint
 10
750.7032719143214
 20
-2052.530068001579
 30
0.0
  0
POINT
  5
16962
330
1F
100
AcDbEntity
  8
0
100
AcDbPoint
 10
980.7032719143215
 20
-2204.418757327964
 30
0.0
  0
CIRCLE
  5
169C9
330
1F
100
AcDbEntity
  8
dima
 62
     3
100
AcDbCircle
 10
750.7032719143214
 20
-2052.530068001579
 30
0.0
 40
3.0
  0
CIRCLE
  5
169CA
330
1F
100
AcDbEntity
  8
dima
 62
     3
100
AcDbCircle
 10
980.7032719143215
 20
-2204.418757327964
 30
0.0
 40
3.0
  0
POINT
  5
169CB
330
1F
100
AcDbEntity
  8
0
100
AcDbPoint
 10
750.7032719143214
 20
-2669.528823736961
 30
0.0
  0
POINT
  5
169CC
330
1F
100
AcDbEntity
  8
0
100
AcDbPoint
 10
980.7032719143215
 20
-2517.640134410576
 30
0.0
  0
CIRCLE
  5
169CD
330
1F
100
AcDbEntity
  8
dima
 62
     3
100
AcDbCircle
 10
750.7032719143214
 20
-2669.528823736961
 30
0.0
 40
3.0
  0
CIRCLE
  5
169CE
330
1F
100
AcDbEntity
  8
dima
 62
     3
100
AcDbCircle
 10
980.7032719143215
 20
-2517.640134410576
 30
0.0
 40
3.0
  0
POINT
  5
169CF
330
1F
100
AcDbEntity
  8
0
100
AcDbPoint
 10
-411.2967280856785
 20
-2052.530068001579
 30
0.0
  0
POINT
  5
169D0
330
1F
100
AcDbEntity
  8
0
100
AcDbPoint
 10
-641.2967280856785
 20
-2204.418757327964
 30
0.0
  0
CIRCLE
  5
169D1
330
1F
100
AcDbEntity
  8
dima
 62
     3
100
AcDbCircle
 10
-411.2967280856785
 20
-2052.530068001579
 30
0.0
 40
3.0
  0
CIRCLE
  5
169D2
330
1F
100
AcDbEntity
  8
dima
 62
     3
100
AcDbCircle
 10
-641.2967280856785
 20
-2204.418757327964
 30
0.0
 40
3.0
  0
POINT
  5
169D3
330
1F
100
AcDbEntity
  8
0
100
AcDbPoint
 10
-411.2967280856785
 20
-2669.528823736961
 30
0.0
  0
POINT
  5
169D4
330
1F
100
AcDbEntity
  8
0
100
AcDbPoint
 10
-641.2967280856785
 20
-2517.640134410576
 30
0.0
  0
CIRCLE
  5
169D5
330
1F
100
AcDbEntity
  8
dima
 62
     3
100
AcDbCircle
 10
-411.2967280856785
 20
-2669.528823736961
 30
0.0
 40
3.0
  0
CIRCLE
  5
169D6
330
1F
100
AcDbEntity
  8
dima
 62
     3
100
AcDbCircle
 10
-641.2967280856785
 20
-2517.640134410576
 30
0.0
 40
3.0
  0
DIMENSION
  5
169D7
330
1F
100
AcDbEntity
  8
flm_misure
100
AcDbDimension
  2
*D5
 10
-641.2967280856785
 20
-2859.061572056477
 30
0.0
 11
-735.7967280856785
 21
-2859.061572056477
 31
0.0
 70
    32
 71
     5
 42
189.0
  3
flaminia
100
AcDbAlignedDimension
 13
-830.2967280856785
 23
-2761.029445869271
 33
0.0
 14
-641.2967280856785
 24
-2761.029445869271
 34
0.0
100
AcDbRotatedDimension
  0
DIMENSION
  5
16A03
330
1F
100
AcDbEntity
  8
flm_misure
100
AcDbDimension
  2
*D6
 10
-411.2967280856785
 20
-2907.093698243682
 30
0.0
 11
-620.7967280856784
 21
-2907.093698243682
 31
0.0
 70
    32
 71
     5
 42
419.0
  3
flaminia
100
AcDbAlignedDimension
 13
-830.2967280856785
 23
-2809.061572056476
 33
0.0
 14
-411.2967280856785
 24
-2809.061572056476
 34
0.0
100
AcDbRotatedDimension
  0
DIMENSION
  5
16A68
330
1F
100
AcDbEntity
  8
flm_misure
100
AcDbDimension
  2
*D7
 10
750.7032719143214
 20
-2955.125824430888
 30
0.0
 11
-39.79672808567852
 21
-2955.125824430888
 31
0.0
 70
    32
 71
     5
 42
1581.0
  3
flaminia
100
AcDbAlignedDimension
 13
-830.2967280856785
 23
-2857.093698243682
 33
0.0
 14
750.7032719143214
 24
-2857.093698243685
 34
0.0
100
AcDbRotatedDimension
  0
DIMENSION
  5
16A85
330
1F
100
AcDbEntity
  8
flm_misure
100
AcDbDimension
  2
*D8
 10
980.7032719143215
 20
-3003.157950618094
 30
0.0
 11
75.20327191432148
 21
-3003.157950618094
 31
0.0
 70
    32
 71
     5
 42
1811.0
  3
flaminia
100
AcDbAlignedDimension
 13
-830.2967280856785
 23
-2905.125824430888
 33
0.0
 14
980.7032719143215
 24
-2905.125824430891
 34
0.0
100
AcDbRotatedDimension
  0
DIMENSION
  5
16AA2
330
1F
100
AcDbEntity
  8
flm_misure
100
AcDbDimension
  2
*D9
 10
-878.3288542728834
 20
-1911.02944586927
 30
0.0
 11
-878.3288542728831
 21
-1981.779756935425
 31
0.0
 70
    32
 71
     5
 42
141.5006221323089
  3
flaminia
100
AcDbAlignedDimension
 13
-780.2967280856785
 23
-2052.530068001579
 33
0.0
 14
-780.2967280856785
 24
-1911.02944586927
 34
0.0
 50
90.00000000000003
100
AcDbRotatedDimension
  0
DIMENSION
  5
16AC7
330
1F
100
AcDbEntity
  8
flm_misure
100
AcDbDimension
  2
*D10
 10
-926.3609804600886
 20
-1911.02944586927
 30
0.0
 11
-926.3609804600882
 21
-2057.724101598617
 31
0.0
 70
    32
 71
     5
 42
293.3893114586933
  3
flaminia
100
AcDbAlignedDimension
 13
-828.3288542728834
 23
-2204.418757327964
 33
0.0
 14
-828.3288542728834
 24
-1911.02944586927
 34
0.0
 50
90.00000000000003
100
AcDbRotatedDimension
  0
DIMENSION
  5
16B54
330
1F
100
AcDbEntity
  8
flm_misure
100
AcDbDimension
  2
*D11
 10
-974.3931066472935
 20
-1911.02944586927
 30
0.0
 11
-974.3931066472931
 21
-2214.334790139921
 31
0.0
 70
    32
 71
     5
 42
606.6106885413017
  3
flaminia
100
AcDbAlignedDimension
 13
-876.3609804600886
 23
-2517.640134410572
 33
0.0
 14
-876.3609804600886
 24
-1911.02944586927
 34
0.0
 50
90.00000000000003
100
AcDbRotatedDimension
  0
DIMENSION
  5
16B81
330
1F
100
AcDbEntity
  8
flm_misure
100
AcDbDimension
  2
*D12
 10
-1022.425232834498
 20
-1911.02944586927
 30
0.0
 11
-1022.425232834498
 21
-2290.279134803116
 31
0.0
 70
    32
 71
     5
 42
758.4993778676905
  3
flaminia
100
AcDbAlignedDimension
 13
-924.3931066472935
 23
-2669.528823736961
 33
0.0
 14
-924.3931066472935
 24
-1911.02944586927
 34
0.0
 50
90.00000000000003
100
AcDbRotatedDimension
  0
ENDSEC
  0
SECTION
  2
OBJECTS
  0
DICTIONARY
  5
C
330
0
100
AcDbDictionary
281
     1
  3
ACAD_COLOR
350
103DC
  3
ACAD_GROUP
350
D
  3
ACAD_IMAGE_DICT
350
980A
  3
ACAD_IMAGE_VARS
350
981A
  3
ACAD_LAYOUT
350
1A
  3
ACAD_MATERIAL
350
103DB
  3
ACAD_MLINESTYLE
350
17
  3
ACAD_PLOTSETTINGS
350
19
  3
ACAD_PLOTSTYLENAME
350
E
  3
AcDbVariableDictionary
350
9418
  3
AcStStandard
350
13833
  3
ASE_INDEX_DICTIONARY
350
168A8
  0
DICTIONARY
  5
12123
330
2
100
AcDbDictionary
280
     1
281
     1
  3
ACAD_LAYERFILTERS
360
12124
  3
ACAD_LAYERSTATES
360
168C8
  0
DICTIONARY
  5
9C12
330
1F
100
AcDbDictionary
280
     1
281
     1
  3
ACAD_SORTENTS
360
9C13
  0
DICTIONARY
  5
103DC
102
{ACAD_REACTORS
330
C
102
}
330
C
100
AcDbDictionary
281
     1
  0
DICTIONARY
  5
D
102
{ACAD_REACTORS
330
C
102
}
330
C
100
AcDbDictionary
281
     1
  0
DICTIONARY
  5
980A
102
{ACAD_REACTORS
330
C
102
}
330
C
100
AcDbDictionary
281
     1
  3
005
350
980B
  3
casa
350
980C
  3
Curva vaso
350
126C4
  3
Curva vaso 1
350
126C5
  3
logo-piazza
350
980D
  3
Nuda
350
980E
  3
pianta_Livio Andronico
350
980F
  3
Stef
350
9810
  3
Stefano
350
9811
  0
RASTERVARIABLES
  5
981A
102
{ACAD_REACTORS
330
C
102
}
330
C
100
AcDbRasterVariables
 90
        0
 70
     1
 71
     1
 72
     0
  0
DICTIONARY
  5
1A
102
{ACAD_REACTORS
330
C
102
}
330
C
100
AcDbDictionary
281
     1
  3
Layout1
350
1682B
  3
Model
350
22
  0
DICTIONARY
  5
103DB
102
{ACAD_REACTORS
330
C
102
}
330
C
100
AcDbDictionary
281
     1
  0
DICTIONARY
  5
17
102
{ACAD_REACTORS
330
C
102
}
330
C
100
AcDbDictionary
281
     1
  3
Standard
350
18
  0
DICTIONARY
  5
19
102
{ACAD_REACTORS
330
C
102
}
330
C
100
AcDbDictionary
281
     1
  0
ACDBDICTIONARYWDFLT
  5
E
102
{ACAD_REACTORS
330
C
102
}
330
C
100
AcDbDictionary
281
     1
  3
Normal
350
F
100
AcDbDictionaryWithDefault
340
F
  0
DICTIONARY
  5
9418
102
{ACAD_REACTORS
330
C
102
}
330
C
100
AcDbDictionary
281
     1
  3
DIMASSOC
350
9419
  3
PROJECTNAME
350
10DB0
  3
SORTENTS
350
9C11
  0
DICTIONARY
  5
13833
102
{ACAD_REACTORS
330
C
102
}
330
C
100
AcDbDictionary
281
     1
  0
DICTIONARY
  5
168A8
102
{ACAD_REACTORS
330
C
102
}
330
C
100
AcDbDictionary
281
     1
  3
ASEBlockHierarchyIndexRecord
350
168A9
1001
DCO15
1040
1550488974.822
  0
DICTIONARY
  5
12124
102
{ACAD_REACTORS
330
12123
102
}
330
12123
100
AcDbDictionary
280
     1
281
     1
  3
$
360
12125
  3
-
360
12126
  3
-1
360
12127
  3
-2
360
12128
  3
0
360
12129
  3
0 existente
360
1212A
  3
0.13
360
1212B
  3
0.15 mm
360
1212C
  3
0.20 mm
360
1212D
  3
0.25 mm
360
1212E
  3
00
360
1212F
  3
00_genéricos
360
12130
  3
01
360
12131
  3
03
360
12132
  3
09
360
12133
  3
0piso
360
12134
  3
1
360
12135
  3
1 Traçado
360
12136
  3
100
360
12137
  3
1008
360
12138
  3
1101
360
12139
  3
1105
360
1213A
  3
1108
360
1213B
  3
111
360
1213C
  3
1205
360
1213D
  3
1PISO
360
1213E
  3
2
360
1213F
  3
2 Drenagem
360
12140
  3
20
360
12141
  3
200
360
12142
  3
250
360
12143
  3
251
360
12144
  3
252
360
12145
  3
254
360
12146
  3
2PISO
360
12147
  3
3
360
12148
  3
3 Pavimentação
360
12149
  3
3D
360
1214A
  3
3PISO
360
1214B
  3
4
360
1214C
  3
5
360
1214D
  3
5 Sinalização
360
1214E
  3
50
360
1214F
  3
6
360
12150
  3
6 Iluminação Pública
360
12151
  3
6L-PISO-1
360
12152
  3
6L-PISO0
360
12153
  3
6L-PISO1_4
360
12154
  3
6L-PISO5
360
12155
  3
7
360
12156
  3
77
360
12157
  3
7L-PISO-1
360
12158
  3
7L-PISO0
360
12159
  3
7L-PISO1_4
360
1215A
  3
7L-PISO5
360
1215B
  3
8
360
1215C
  3
A
360
1215D
  3
A-
360
1215E
  3
A-R
360
1215F
  3
ac
360
12160
  3
activo
360
12161
  3
activos
360
12162
  3
AL
360
12163
  3
alçado 1
360
12164
  3
ALÇADOS
360
12165
  3
alçados_11
360
12166
  3
ama
360
12167
  3
AMARELO
360
12168
  3
arbres
360
12169
  3
are
360
1216A
  3
AREAS
360
1216B
  3
arm
360
1216C
  3
ARM-INF-CORPO-A
360
1216D
  3
ARM-INF-CORPO-C
360
1216E
  3
ARM-INF-CORPO-E
360
1216F
  3
ARM-INF-CORPO-F
360
12170
  3
ARM-INF-CORPO-G
360
12171
  3
ARM-INF-CORPO-I
360
12172
  3
ARM-SUP-CORPO-E
360
12173
  3
ARM-SUP-CORPO-F
360
12174
  3
ARM-SUP-CORPO-I
360
12175
  3
arm1
360
12176
  3
arminf
360
12177
  3
armsup
360
12178
  3
ARPAS
360
12179
  3
arq
360
1217A
  3
ARQ P0
360
1217B
  3
ARQ P1
360
1217C
  3
ARQUITECTURA
360
1217D
  3
ARRANJOS EXTERIORES
360
1217E
  3
ARS
360
1217F
  3
asnas
360
12180
  3
AUX
360
12181
  3
AUXILIARES
360
12182
  3
b
360
12183
  3
B-
360
12184
  3
BAIXO
360
12185
  3
BAUS
360
12186
  3
bet
360
12187
  3
BETAR
360
12188
  3
BETS
360
12189
  3
BLO
360
1218A
  3
BLOCO2
360
1218B
  3
BLOCO3
360
1218C
  3
BRANCO
360
1218D
  3
C
360
1218E
  3
C3
360
1218F
  3
cae
360
12190
  3
CANETAS
360
12191
  3
cart
360
12192
  3
CARTOGRAFIA
360
12193
  3
Cartografia existente
360
12194
  3
CASAS
360
12195
  3
CCG
360
12196
  3
cena
360
12197
  3
CHEIOS
360
12198
  3
CIMA
360
12199
  3
cir
360
1219A
  3
CIRC
360
1219B
  3
COB
360
1219C
  3
COBERTURA
360
1219D
  3
COCOS
360
1219E
  3
COD
360
1219F
  3
colour141
360
121A0
  3
colour180
360
121A1
  3
colour32
360
121A2
  3
conces
360
121A3
  3
cor 1
360
121A4
  3
cor 9
360
121A5
  3
CORPO E
360
121A6
  3
corte
360
121A7
  3
Corte 1
360
121A8
  3
Corte 2
360
121A9
  3
Corte 3
360
121AA
  3
Corte 4
360
121AB
  3
CORTE A
360
121AC
  3
CORTE B
360
121AD
  3
CORTE C
360
121AE
  3
CORTE D
360
121AF
  3
CORTE E
360
121B0
  3
CORTE F
360
121B1
  3
cortes
360
121B2
  3
cortes_12
360
121B3
  3
cot
360
121B4
  3
cotas
360
121B5
  3
crt
360
121B6
  3
CTA
360
121B7
  3
CURVAS
360
121B8
  3
Curve di livello
360
121B9
  3
cyan
360
121BA
  3
DD
360
121BB
  3
Deckenspiegel
360
121BC
  3
DESLIGADO
360
121BD
  3
di
360
121BE
  3
dim
360
121BF
  3
DIV
360
121C0
  3
Dtl-Cut
360
121C1
  3
e
360
121C2
  3
efi
360
121C3
  3
EIXOS
360
121C4
  3
ELECTRICAL LAYERS
360
121C5
  3
elev
360
121C6
  3
engelser
360
121C7
  3
ENGENHEIROS
360
121C8
  3
ENTREPOSTO
360
121C9
  3
ENVOLVENTE
360
121CA
  3
equipamento
360
121CB
  3
erco
360
121CC
  3
ESCALA 1-2
360
121CD
  3
Esgotos
360
121CE
  3
esgots
360
121CF
  3
EST
360
121D0
  3
est- -2
360
121D1
  3
est- -3
360
121D2
  3
est- -4
360
121D3
  3
ESTRUT
360
121D4
  3
ESTRUTURA
360
121D5
  3
ex
360
121D6
  3
execpilj
360
121D7
  3
EXTERIORES
360
121D8
  3
F
360
121D9
  3
F16P25POS10_19
360
121DA
  3
fer
360
121DB
  3
fin
360
121DC
  3
FINOS
360
121DD
  3
Foglio
360
121DE
  3
FOLHA
360
121DF
  3
FOLHAS
360
121E0
  3
FOLHAS-VIEW
360
121E1
  3
FR-ACT-VP
360
121E2
  3
frees
360
121E3
  3
freeze
360
121E4
  3
frezze
360
121E5
  3
FRIZADOS
360
121E6
  3
FROZEN
360
121E7
  3
FVA
360
121E8
  3
G
360
121E9
  3
GERAL
360
121EA
  3
gla
360
121EB
  3
gpo
360
121EC
  3
grelha
360
121ED
  3
GRID
360
121EE
  3
grises
360
121EF
  3
GRIZES
360
121F0
  3
GUIA
360
121F1
  3
H
360
121F2
  3
hat
360
121F3
  3
hatch
360
121F4
  3
hatch wall
360
121F5
  3
HIDRAULICA
360
121F6
  3
HS
360
121F7
  3
i
360
121F8
  3
IE´s Layers
360
121F9
  3
ig
360
121FA
  3
il
360
121FB
  3
ILUM
360
121FC
  3
ilum_ant
360
121FD
  3
implant_F
360
121FE
  3
IMPLANTAÇÃO
360
121FF
  3
inv
360
12200
  3
Jorge
360
12201
  3
Karsten
360
12202
  3
l
360
12203
  3
L20
360
12204
  3
LAYER QUE COMEÇAM POR V
360
12205
  3
Layers a 0.13mm
360
12206
  3
Layers a 0.13mm1
360
12207
  3
Layers do Projecto
360
12208
  3
LAYERS ESTRUTURA
360
12209
  3
LAYERSF
360
1220A
  3
lixo
360
1220B
  3
ll
360
1220C
  3
lock
360
1220D
  3
LOCKS
360
1220E
  3
LOTE 1
360
1220F
  3
LOTE 2
360
12210
  3
LOTE6
360
12211
  3
LOTE7
360
12212
  3
LOTES
360
12213
  3
LT22
360
12214
  3
LTP
360
12215
  3
LUI
360
12216
  3
m
360
12217
  3
M-DESENHO-LEGENDA
360
12218
  3
m1
360
12219
  3
M1-ALÇADOS
360
1221A
  3
M1-CAVE
360
1221B
  3
M1-PISO 0
360
1221C
  3
M1-PISO 1
360
1221D
  3
mag
360
1221E
  3
maistxt
360
1221F
  3
malha
360
12220
  3
MATERIALS
360
12221
  3
medições
360
12222
  3
MEUS
360
12223
  3
Moldura
360
12224
  3
MOVEIS
360
12225
  3
MS2-FLP
360
12226
  3
MUROS
360
12227
  3
NER
360
12228
  3
normal
360
12229
  3
Not frozen
360
1222A
  3
NPK
360
1222B
  3
NPK-3D
360
1222C
  3
NPK-ARV
360
1222D
  3
NPK-CRT
360
1222E
  3
NPK-PAV
360
1222F
  3
NPK-V
360
12230
  3
NPK-V-
360
12231
  3
NPK.CRT
360
12232
  3
NUMERO
360
12233
  3
o
360
12234
  3
OCULT
360
12235
  3
off
360
12236
  3
on
360
12237
  3
outros
360
12238
  3
p
360
12239
  3
p-
360
1223A
  3
p-3
360
1223B
  3
PAPER
360
1223C
  3
paredees
360
1223D
  3
paredes
360
1223E
  3
PAREDES CORTE
360
1223F
  3
PAREDES VISTA
360
12240
  3
parte A
360
12241
  3
Parte B
360
12242
  3
Parte C
360
12243
  3
Parte D
360
12244
  3
Parte E
360
12245
  3
Parte F
360
12246
  3
parte g
360
12247
  3
parte H
360
12248
  3
parte H2
360
12249
  3
parte i
360
1224A
  3
parte J
360
1224B
  3
parte J2
360
1224C
  3
pav
360
1224D
  3
PAV_GRANNDES
360
1224E
  3
PAVIMENTOS ACABAMENTO
360
1224F
  3
pfgc
360
12250
  3
pilares
360
12251
  3
PISO
360
12252
  3
Piso -1
360
12253
  3
Piso -2
360
12254
  3
piso -3
360
12255
  3
piso -4
360
12256
  3
Piso 0
360
12257
  3
Piso 1
360
12258
  3
piso 2
360
12259
  3
piso 3
360
1225A
  3
piso 4
360
1225B
  3
piso técnico
360
1225C
  3
PISO-1
360
1225D
  3
piso0
360
1225E
  3
piso1
360
1225F
  3
piso2
360
12260
  3
piso5
360
12261
  3
PISOS
360
12262
  3
PL-T
360
12263
  3
PLANTAS
360
12264
  3
plot
360
12265
  3
POLYLINES
360
12266
  3
por
360
12267
  3
PORTAS
360
12268
  3
PRE-
360
12269
  3
Progetto
360
1226A
  3
quote
360
1226B
  3
RAM
360
1226C
  3
rasantes
360
1226D
  3
reb
360
1226E
  3
red
360
1226F
  3
ref
360
12270
  3
reguas
360
12271
  3
REVESTIMENTOS ACABAMENTOS
360
12272
  3
risco
360
12273
  3
RRR
360
12274
  3
seny_horit
360
12275
  3
Sezioni
360
12276
  3
som
360
12277
  3
SOMBRAS
360
12278
  3
sta
360
12279
  3
struttura
360
1227A
  3
SUB
360
1227B
  3
sumidouro
360
1227C
  3
superfici
360
1227D
  3
SYM
360
1227E
  3
T
360
1227F
  3
TEC
360
12280
  3
TEMP
360
12281
  3
test
360
12282
  3
text
360
12283
  3
text100
360
12284
  3
text200
360
12285
  3
TEXTO
360
12286
  3
TEXTOS
360
12287
  3
tha on
360
12288
  3
THAWED
360
12289
  3
todas
360
1228A
  3
Todas-ON THAW
360
1228B
  3
todos os a-
360
1228C
  3
todos os a_
360
1228D
  3
TOP
360
1228E
  3
Total
360
1228F
  3
TR
360
12290
  3
trab
360
12291
  3
Trabalho executado pela XIX
360
12292
  3
TRACEJADOS
360
12293
  3
tramas
360
12294
  3
TTE
360
12295
  3
TXT
360
12296
  3
unfreeze
360
12297
  3
USED
360
12298
  3
verde
360
12299
  3
VERDES
360
1229A
  3
vi2
360
1229B
  3
vid
360
1229C
  3
VIDROS
360
1229D
  3
Viewport
360
1229E
  3
vincos
360
1229F
  3
VIPS
360
122A0
  3
vis
360
122A1
  3
VP Freeze
360
122A2
  3
Web
360
122A3
  3
XR_0
360
122A4
  3
xref
360
122A5
  3
XREF PISO -1
360
122A6
  3
XREF PISO 0
360
122A7
  3
XREF PISO 1
360
122A8
  3
XREF PISO 2
360
122A9
  3
yellow
360
122AA
  3
z1
360
122AB
  3
z2
360
122AC
  3
Z3_L_DASH
360
122AD
  3
Z3_L_DIM
360
122AE
  3
Z3_L_LEGENDA
360
122AF
  3
Z5_L_AREAS
360
122B0
  3
Z5_L_DASH
360
122B1
  3
Z5_L_DIM
360
122B2
  3
Z5_L_EIXOS
360
122B3
  3
Z5_L_HATCH
360
122B4
  3
Z5_L_HIDDEN
360
122B5
  3
Z5_L_PAVIMENTOS
360
122B6
  3
Z5_L_PILARES
360
122B7
  3
Z5_L_PORTAS
360
122B8
  3
Z5_L_TEXTO
360
122B9
  3
Z5_L_VARANDAS
360
122BA
  3
Z7_L_ALÇADOS
360
122BB
  3
Z7_L_PILARES
360
122BC
  3
Z_DIM
360
122BD
  3
Z_LEGENDA
360
122BE
  3
ZG
360
122BF
  0
DICTIONARY
  5
168C8
102
{ACAD_REACTORS
330
12123
102
}
330
12123
100
AcDbDictionary
281
     1
  0
SORTENTSTABLE
  5
9C13
102
{ACAD_REACTORS
330
9C12
102
}
330
9C12
100
AcDbSortentsTable
330
1F
  0
IMAGEDEF
  5
980B
102
{ACAD_REACTORS
330
980A
102
}
330
980A
100
AcDbRasterImageDef
 90
        0
  1
C:\Documents and Settings\Administrator\TRIPLAN\704 Linea.sanitari\07 Architecture\01 Progetto\10 Documentazione\009.23.05.03.Lavabo 90 con fascia.jpg
 10
573.0
 20
420.0
 11
0.0017452006980803
 21
0.0017452006980803
280
     1
281
     0
  0
IMAGEDEF
  5
980C
102
{ACAD_REACTORS
330
980A
102
}
330
980A
100
AcDbRasterImageDef
 90
        0
  1
C:\Documents and Settings\Windows 2000\Documenti\Stefano\casa.tif
 10
1951.0
 20
2723.0
 11
0.0846666666666667
 21
0.0846666666666667
280
     1
281
     5
  0
IMAGEDEF
  5
126C4
102
{ACAD_REACTORS
330
980A
102
}
330
980A
100
AcDbRasterImageDef
 90
        0
  1
C:\Documents and Settings\Simona\Desktop\Curva vaso.jpg
 10
1058.0
 20
672.0
 11
0.000945179584121
 21
0.000945179584121
280
     1
281
     0
  0
IMAGEDEF
  5
126C5
102
{ACAD_REACTORS
330
980A
102
}
330
980A
100
AcDbRasterImageDef
 90
        0
  1
C:\Documents and Settings\Simona\Desktop\Curva vaso 1.jpg
 10
979.0
 20
503.0
 11
0.0010214504596527
 21
0.0010214504596527
280
     1
281
     0
  0
IMAGEDEF
  5
980D
102
{ACAD_REACTORS
330
980A
102
}
330
980A
100
AcDbRasterImageDef
 90
        0
  1
C:\Eigene Dateien\Triplan-it\906 Bar\07 Architecture\01 Bar\10 Varie\logo-piazza.bmp
 10
1813.0
 20
1551.0
 11
0.0846525034496322
 21
0.0846525034496322
280
     1
281
     2
  0
IMAGEDEF
  5
980E
102
{ACAD_REACTORS
330
980A
102
}
330
980A
100
AcDbRasterImageDef
 90
        0
  1
C:\Documents and Settings\Simona\Desktop\Nuda.jpg
 10
1154.0
 20
1074.0
 11
0.0008665511265165
 21
0.0008665511265165
280
     1
281
     0
  0
IMAGEDEF
  5
980F
102
{ACAD_REACTORS
330
980A
102
}
330
980A
100
AcDbRasterImageDef
 90
        0
  1
C:\Documents and Settings\Windows 2000\Documenti\920 Livio Andronico\pianta_Livio Andronico.tif
 10
1977.0
 20
1631.0
 11
0.0846666666666667
 21
0.0846666666666667
280
     1
281
     5
  0
IMAGEDEF
  5
9810
102
{ACAD_REACTORS
330
980A
102
}
330
980A
100
AcDbRasterImageDef
 90
        0
  1
C:\Utenti\Lavori in corso\Personali\Paola\STEFANO\Stef.tif
 10
8513.0
 20
12053.0
 11
0.0846666666666667
 21
0.0846666666666667
280
     1
281
     5
  0
IMAGEDEF
  5
9811
102
{ACAD_REACTORS
330
980A
102
}
330
980A
100
AcDbRasterImageDef
 90
        0
  1
C:\Utenti\Lavori in corso\Personali\Paola\STEFANO\Stefano.tif
 10
3483.0
 20
4175.0
 11
0.0846666666666667
 21
0.0846666666666667
280
     1
281
     5
  0
LAYOUT
  5
1682B
102
{ACAD_REACTORS
330
1A
102
}
330
1A
100
AcDbPlotSettings
  1

  2
Epson Stylus Photo 1200 ESC/P 2
  4

  6

 40
0.0
 41
0.0
 42
0.0
 43
0.0
 44
0.0
 45
0.0
 46
0.0
 47
0.0
 48
0.0
 49
0.0
140
0.0
141
0.0
142
1.0
143
1.0
 70
   688
 72
     0
 73
     0
 74
     5
  7
flaminia.ctb
 75
    16
147
1.0
148
0.0
149
0.0
100
AcDbLayout
  1
Layout1
 70
     1
 71
     1
 10
0.0
 20
0.0
 11
12.0
 21
9.0
 12
0.0
 22
0.0
 32
0.0
 14
0.0
 24
0.0
 34
0.0
 15
0.0
 25
0.0
 35
0.0
146
0.0
 13
0.0
 23
0.0
 33
0.0
 16
1.0
 26
0.0
 36
0.0
 17
0.0
 27
1.0
 37
0.0
 76
     0
330
1682A
  0
LAYOUT
  5
22
102
{ACAD_XDICTIONARY
360
10DA0
102
}
102
{ACAD_REACTORS
330
1A
102
}
330
1A
100
AcDbPlotSettings
  1

  2
Epson Stylus Photo 1200
  4
A3
  6

 40
3.757083177566528
 41
3.686520338058471
 42
3.757080078125
 43
3.757080078125
 44
296.9683227539062
 45
419.9466552734374
 46
34.93
 47
0.0
 48
-1054.115570771722
 49
-3053.474706011292
140
1375.048337824911
141
-1760.265485851486
142
1.0
143
5.888838591600836
 70
 11956
 72
     1
 73
     1
 74
     4
  7
flaminia.ctb
 75
     0
147
0.1698127711339016
148
1054.115570771722
149
3053.474706011292
100
AcDbLayout
  1
Model
 70
     1
 71
     0
 10
0.0
 20
0.0
 11
12.0
 21
9.0
 12
0.0
 22
0.0
 32
0.0
 14
0.0
 24
0.0
 34
0.0
 15
0.0
 25
0.0
 35
0.0
146
0.0
 13
0.0
 23
0.0
 33
0.0
 16
1.0
 26
0.0
 36
0.0
 17
0.0
 27
1.0
 37
0.0
 76
     0
330
1F
  0
MLINESTYLE
  5
18
102
{ACAD_REACTORS
330
17
102
}
330
17
100
AcDbMlineStyle
  2
STANDARD
 70
     0
  3

 62
   256
 51
90.0
 52
90.0
 71
     2
 49
0.5
 62
   256
  6
BYLAYER
 49
-0.5
 62
   256
  6
BYLAYER
  0
ACDBPLACEHOLDER
  5
F
102
{ACAD_REACTORS
330
E
102
}
330
E
  0
DICTIONARYVAR
  5
9419
102
{ACAD_REACTORS
330
9418
102
}
330
9418
100
DictionaryVariables
280
     0
  1
1
  0
DICTIONARYVAR
  5
10DB0
102
{ACAD_REACTORS
330
9418
102
}
330
9418
100
DictionaryVariables
280
     0
  1

  0
DICTIONARYVAR
  5
9C11
102
{ACAD_REACTORS
330
9418
102
}
330
9418
100
DictionaryVariables
280
     0
  1
127
  0
XRECORD
  5
168A9
102
{ACAD_REACTORS
330
168A8
102
}
330
168A8
100
AcDbXrecord
280
     1
330
167C6
  0
XRECORD
  5
12125
102
{ACAD_REACTORS
330
12124
102
}
330
12124
100
AcDbXrecord
280
     1
  1
$
  1
*
  1
*
  1
*
 70
     0
  1
*
  1
*
  0
XRECORD
  5
12126
102
{ACAD_REACTORS
330
12124
102
}
330
12124
100
AcDbXrecord
280
     1
  1
-
  1
*
  1
*
  1
*
 70
     0
  1
*
  1
*
  0
XRECORD
  5
12127
102
{ACAD_REACTORS
330
12124
102
}
330
12124
100
AcDbXrecord
280
     1
  1
-1
  1
10_0-1*
  1
*
  1
*
 70
     0
  1
*
  1
*
  0
XRECORD
  5
12128
102
{ACAD_REACTORS
330
12124
102
}
330
12124
100
AcDbXrecord
280
     1
  1
-2
  1
10_0-2*
  1
*
  1
*
 70
     0
  1
*
  1
*
  0
XRECORD
  5
12129
102
{ACAD_REACTORS
330
12124
102
}
330
12124
100
AcDbXrecord
280
     1
  1
0
  1
0*
  1
*
  1
*
 70
     1
  1
*
  1
*
  0
XRECORD
  5
1212A
102
{ACAD_REACTORS
330
12124
102
}
330
12124
100
AcDbXrecord
280
     1
  1
0 existente
  1
0*
  1
*
  1
*
 70
     0
  1
*
  1
*
  0
XRECORD
  5
1212B
102
{ACAD_REACTORS
330
12124
102
}
330
12124
100
AcDbXrecord
280
     1
  1
0.13
  1
*
  1
*
  1
*
 70
     0
  1
0.13 mm
  1
*
  0
XRECORD
  5
1212C
102
{ACAD_REACTORS
330
12124
102
}
330
12124
100
AcDbXrecord
280
     1
  1
0.15 mm
  1
*
  1
*
  1
*
 70
     0
  1
0.15 mm
  1
*
  0
XRECORD
  5
1212D
102
{ACAD_REACTORS
330
12124
102
}
330
12124
100
AcDbXrecord
280
     1
  1
0.20 mm
  1
*
  1
*
  1
*
 70
     0
  1
0.20 mm
  1
*
  0
XRECORD
  5
1212E
102
{ACAD_REACTORS
330
12124
102
}
330
12124
100
AcDbXrecord
280
     1
  1
0.25 mm
  1
*
  1
*
  1
*
 70
     0
  1
0.25 mm
  1
*
  0
XRECORD
  5
1212F
102
{ACAD_REACTORS
330
12124
102
}
330
12124
100
AcDbXrecord
280
     1
  1
00
  1
00*
  1
*
  1
*
 70
     0
  1
*
  1
*
  0
XRECORD
  5
12130
102
{ACAD_REACTORS
330
12124
102
}
330
12124
100
AcDbXrecord
280
     1
  1
00_genéricos
  1
00*
  1
*
  1
*
 70
     0
  1
*
  1
*
  0
XRECORD
  5
12131
102
{ACAD_REACTORS
330
12124
102
}
330
12124
100
AcDbXrecord
280
     1
  1
01
  1
*1001*
  1
*
  1
*
 70
     0
  1
*
  1
*
  0
XRECORD
  5
12132
102
{ACAD_REACTORS
330
12124
102
}
330
12124
100
AcDbXrecord
280
     1
  1
03
  1
*03*
  1
*
  1
*
 70
     0
  1
*
  1
*
  0
XRECORD
  5
12133
102
{ACAD_REACTORS
330
12124
102
}
330
12124
100
AcDbXrecord
280
     1
  1
09
  1
*1009*
  1
*
  1
*
 70
     0
  1
*
  1
*
  0
XRECORD
  5
12134
102
{ACAD_REACTORS
330
12124
102
}
330
12124
100
AcDbXrecord
280
     1
  1
0piso
  1
*piso
  1
*
  1
*
 70
     0
  1
*
  1
*
  0
XRECORD
  5
12135
102
{ACAD_REACTORS
330
12124
102
}
330
12124
100
AcDbXrecord
280
     1
  1
1
  1
*
  1
7
  1
*
 70
     0
  1
*
  1
*
  0
XRECORD
  5
12136
102
{ACAD_REACTORS
330
12124
102
}
330
12124
100
AcDbXrecord
280
     1
  1
1 Traçado
  1
1*
  1
*
  1
*
 70
     0
  1
*
  1
*
  0
XRECORD
  5
12137
102
{ACAD_REACTORS
330
12124
102
}
330
12124
100
AcDbXrecord
280
     1
  1
100
  1
*100*
  1
*
  1
*
 70
     0
  1
*
  1
*
  0
XRECORD
  5
12138
102
{ACAD_REACTORS
330
12124
102
}
330
12124
100
AcDbXrecord
280
     1
  1
1008
  1
1008*
  1
*
  1
*
 70
     0
  1
*
  1
*
  0
XRECORD
  5
12139
102
{ACAD_REACTORS
330
12124
102
}
330
12124
100
AcDbXrecord
280
     1
  1
1101
  1
1101*
  1
*
  1
*
 70
     0
  1
*
  1
*
  0
XRECORD
  5
1213A
102
{ACAD_REACTORS
330
12124
102
}
330
12124
100
AcDbXrecord
280
     1
  1
1105
  1
1105*
  1
*
  1
*
 70
     0
  1
*
  1
*
  0
XRECORD
  5
1213B
102
{ACAD_REACTORS
330
12124
102
}
330
12124
100
AcDbXrecord
280
     1
  1
1108
  1
1108*
  1
*
  1
*
 70
     0
  1
*
  1
*
  0
XRECORD
  5
1213C
102
{ACAD_REACTORS
330
12124
102
}
330
12124
100
AcDbXrecord
280
     1
  1
111
  1
*
  1
*
  1
*
 70
     0
  1
0.09
  1
*
  0
XRECORD
  5
1213D
102
{ACAD_REACTORS
330
12124
102
}
330
12124
100
AcDbXrecord
280
     1
  1
1205
  1
1205*
  1
*
  1
*
 70
     0
  1
*
  1
*
  0
XRECORD
  5
1213E
102
{ACAD_REACTORS
330
12124
102
}
330
12124
100
AcDbXrecord
280
     1
  1
1PISO
  1
1*
  1
*
  1
*
 70
     0
  1
*
  1
*
  0
XRECORD
  5
1213F
102
{ACAD_REACTORS
330
12124
102
}
330
12124
100
AcDbXrecord
280
     1
  1
2
  1
*
  1
green
  1
*
 70
     0
  1
*
  1
*
  0
XRECORD
  5
12140
102
{ACAD_REACTORS
330
12124
102
}
330
12124
100
AcDbXrecord
280
     1
  1
2 Drenagem
  1
2*
  1
*
  1
*
 70
     0
  1
*
  1
*
  0
XRECORD
  5
12141
102
{ACAD_REACTORS
330
12124
102
}
330
12124
100
AcDbXrecord
280
     1
  1
20
  1
20*
  1
*
  1
*
 70
     0
  1
*
  1
*
  0
XRECORD
  5
12142
102
{ACAD_REACTORS
330
12124
102
}
330
12124
100
AcDbXrecord
280
     1
  1
200
  1
*200*
  1
*
  1
*
 70
     0
  1
*
  1
*
  0
XRECORD
  5
12143
102
{ACAD_REACTORS
330
12124
102
}
330
12124
100
AcDbXrecord
280
     1
  1
250
  1
*
  1
250
  1
*
 70
     0
  1
*
  1
*
  0
XRECORD
  5
12144
102
{ACAD_REACTORS
330
12124
102
}
330
12124
100
AcDbXrecord
280
     1
  1
251
  1
*
  1
251
  1
*
 70
     0
  1
*
  1
*
  0
XRECORD
  5
12145
102
{ACAD_REACTORS
330
12124
102
}
330
12124
100
AcDbXrecord
280
     1
  1
252
  1
*
  1
252
  1
*
 70
     0
  1
*
  1
*
  0
XRECORD
  5
12146
102
{ACAD_REACTORS
330
12124
102
}
330
12124
100
AcDbXrecord
280
     1
  1
254
  1
*
  1
254
  1
*
 70
     0
  1
*
  1
*
  0
XRECORD
  5
12147
102
{ACAD_REACTORS
330
12124
102
}
330
12124
100
AcDbXrecord
280
     1
  1
2PISO
  1
2*
  1
*
  1
*
 70
     0
  1
*
  1
*
  0
XRECORD
  5
12148
102
{ACAD_REACTORS
330
12124
102
}
330
12124
100
AcDbXrecord
280
     1
  1
3
  1
*
  1
*
  1
*
 70
     3
  1
*
  1
*
  0
XRECORD
  5
12149
102
{ACAD_REACTORS
330
12124
102
}
330
12124
100
AcDbXrecord
280
     1
  1
3 Pavimentação
  1
3*
  1
*
  1
*
 70
     0
  1
*
  1
*
  0
XRECORD
  5
1214A
102
{ACAD_REACTORS
330
12124
102
}
330
12124
100
AcDbXrecord
280
     1
  1
3D
  1
3D_*
  1
*
  1
*
 70
     0
  1
*
  1
*
  0
XRECORD
  5
1214B
102
{ACAD_REACTORS
330
12124
102
}
330
12124
100
AcDbXrecord
280
     1
  1
3PISO
  1
3*
  1
*
  1
*
 70
     0
  1
*
  1
*
  0
XRECORD
  5
1214C
102
{ACAD_REACTORS
330
12124
102
}
330
12124
100
AcDbXrecord
280
     1
  1
4
  1
*
  1
magenta
  1
*
 70
     0
  1
*
  1
*
  0
XRECORD
  5
1214D
102
{ACAD_REACTORS
330
12124
102
}
330
12124
100
AcDbXrecord
280
     1
  1
5
  1
*
  1
blue
  1
*
 70
     0
  1
*
  1
*
  0
XRECORD
  5
1214E
102
{ACAD_REACTORS
330
12124
102
}
330
12124
100
AcDbXrecord
280
     1
  1
5 Sinalização
  1
5*
  1
*
  1
*
 70
     0
  1
*
  1
*
  0
XRECORD
  5
1214F
102
{ACAD_REACTORS
330
12124
102
}
330
12124
100
AcDbXrecord
280
     1
  1
50
  1
*50*
  1
*
  1
*
 70
     0
  1
*
  1
*
  0
XRECORD
  5
12150
102
{ACAD_REACTORS
330
12124
102
}
330
12124
100
AcDbXrecord
280
     1
  1
6
  1
*6*
  1
*
  1
*
 70
     0
  1
*
  1
*
  0
XRECORD
  5
12151
102
{ACAD_REACTORS
330
12124
102
}
330
12124
100
AcDbXrecord
280
     1
  1
6 Iluminação Pública
  1
6*
  1
*
  1
*
 70
     0
  1
*
  1
*
  0
XRECORD
  5
12152
102
{ACAD_REACTORS
330
12124
102
}
330
12124
100
AcDbXrecord
280
     1
  1
6L-PISO-1
  1
*6L--1*
  1
*
  1
*
 70
     0
  1
*
  1
*
  0
XRECORD
  5
12153
102
{ACAD_REACTORS
330
12124
102
}
330
12124
100
AcDbXrecord
280
     1
  1
6L-PISO0
  1
*6L-0*
  1
*
  1
*
 70
     0
  1
*
  1
*
  0
XRECORD
  5
12154
102
{ACAD_REACTORS
330
12124
102
}
330
12124
100
AcDbXrecord
280
     1
  1
6L-PISO1_4
  1
*6L-1_4*
  1
*
  1
*
 70
     0
  1
*
  1
*
  0
XRECORD
  5
12155
102
{ACAD_REACTORS
330
12124
102
}
330
12124
100
AcDbXrecord
280
     1
  1
6L-PISO5
  1
6L-5*
  1
*
  1
*
 70
     0
  1
*
  1
*
  0
XRECORD
  5
12156
102
{ACAD_REACTORS
330
12124
102
}
330
12124
100
AcDbXrecord
280
     1
  1
7
  1
*
  1
7
  1
*
 70
     0
  1
*
  1
*
  0
XRECORD
  5
12157
102
{ACAD_REACTORS
330
12124
102
}
330
12124
100
AcDbXrecord
280
     1
  1
77
  1
*
  1
77
  1
*
 70
     0
  1
*
  1
*
  0
XRECORD
  5
12158
102
{ACAD_REACTORS
330
12124
102
}
330
12124
100
AcDbXrecord
280
     1
  1
7L-PISO-1
  1
*7L--1*
  1
*
  1
*
 70
     0
  1
*
  1
*
  0
XRECORD
  5
12159
102
{ACAD_REACTORS
330
12124
102
}
330
12124
100
AcDbXrecord
280
     1
  1
7L-PISO0
  1
*7L-0*
  1
*
  1
*
 70
     0
  1
*
  1
*
  0
XRECORD
  5
1215A
102
{ACAD_REACTORS
330
12124
102
}
330
12124
100
AcDbXrecord
280
     1
  1
7L-PISO1_4
  1
*7L-1_4*
  1
*
  1
*
 70
     0
  1
*
  1
*
  0
XRECORD
  5
1215B
102
{ACAD_REACTORS
330
12124
102
}
330
12124
100
AcDbXrecord
280
     1
  1
7L-PISO5
  1
*7L-5*
  1
*
  1
*
 70
     0
  1
*
  1
*
  0
XRECORD
  5
1215C
102
{ACAD_REACTORS
330
12124
102
}
330
12124
100
AcDbXrecord
280
     1
  1
8
  1
*
  1
8
  1
*
 70
     0
  1
*
  1
*
  0
XRECORD
  5
1215D
102
{ACAD_REACTORS
330
12124
102
}
330
12124
100
AcDbXrecord
280
     1
  1
A
  1
A*
  1
*
  1
*
 70
     0
  1
*
  1
*
  0
XRECORD
  5
1215E
102
{ACAD_REACTORS
330
12124
102
}
330
12124
100
AcDbXrecord
280
     1
  1
A-
  1
A-*
  1
*
  1
*
 70
     0
  1
*
  1
*
  0
XRECORD
  5
1215F
102
{ACAD_REACTORS
330
12124
102
}
330
12124
100
AcDbXrecord
280
     1
  1
A-R
  1
*.*
  1
*
  1
*
 70
     0
  1
*
  1
*
  0
XRECORD
  5
12160
102
{ACAD_REACTORS
330
12124
102
}
330
12124
100
AcDbXrecord
280
     1
  1
ac
  1
*ac*
  1
*
  1
*
 70
     0
  1
*
  1
*
  0
XRECORD
  5
12161
102
{ACAD_REACTORS
330
12124
102
}
330
12124
100
AcDbXrecord
280
     1
  1
activo
  1
*
  1
*
  1
*
 70
    48
  1
*
  1
*
  0
XRECORD
  5
12162
102
{ACAD_REACTORS
330
12124
102
}
330
12124
100
AcDbXrecord
280
     1
  1
activos
  1
*
  1
*
  1
*
 70
    48
  1
*
  1
*
  0
XRECORD
  5
12163
102
{ACAD_REACTORS
330
12124
102
}
330
12124
100
AcDbXrecord
280
     1
  1
AL
  1
12*
  1
*
  1
*
 70
     0
  1
*
  1
*
  0
XRECORD
  5
12164
102
{ACAD_REACTORS
330
12124
102
}
330
12124
100
AcDbXrecord
280
     1
  1
alçado 1
  1
1201*,00*
  1
*
  1
*
 70
     0
  1
*
  1
*
  0
XRECORD
  5
12165
102
{ACAD_REACTORS
330
12124
102
}
330
12124
100
AcDbXrecord
280
     1
  1
ALÇADOS
  1
120-*
  1
*
  1
*
 70
     0
  1
*
  1
*
  0
XRECORD
  5
12166
102
{ACAD_REACTORS
330
12124
102
}
330
12124
100
AcDbXrecord
280
     1
  1
alçados_11
  1
11*
  1
*
  1
*
 70
     0
  1
*
  1
*
  0
XRECORD
  5
12167
102
{ACAD_REACTORS
330
12124
102
}
330
12124
100
AcDbXrecord
280
     1
  1
ama
  1
*
  1
yellow
  1
*
 70
     0
  1
*
  1
*
  0
XRECORD
  5
12168
102
{ACAD_REACTORS
330
12124
102
}
330
12124
100
AcDbXrecord
280
     1
  1
AMARELO
  1
*
  1
2
  1
*
 70
     0
  1
*
  1
*
  0
XRECORD
  5
12169
102
{ACAD_REACTORS
330
12124
102
}
330
12124
100
AcDbXrecord
280
     1
  1
arbres
  1
*arb*
  1
*
  1
*
 70
     0
  1
*
  1
*
  0
XRECORD
  5
1216A
102
{ACAD_REACTORS
330
12124
102
}
330
12124
100
AcDbXrecord
280
     1
  1
are
  1
*are*
  1
*
  1
*
 70
     0
  1
*
  1
*
  0
XRECORD
  5
1216B
102
{ACAD_REACTORS
330
12124
102
}
330
12124
100
AcDbXrecord
280
     1
  1
AREAS
  1
*AREAS
  1
*
  1
*
 70
     0
  1
*
  1
*
  0
XRECORD
  5
1216C
102
{ACAD_REACTORS
330
12124
102
}
330
12124
100
AcDbXrecord
280
     1
  1
arm
  1
*arm*
  1
*
  1
*
 70
     0
  1
*
  1
*
  0
XRECORD
  5
1216D
102
{ACAD_REACTORS
330
12124
102
}
330
12124
100
AcDbXrecord
280
     1
  1
ARM-INF-CORPO-A
  1
*ZA*
  1
*
  1
*
 70
     0
  1
*
  1
*
  0
XRECORD
  5
1216E
102
{ACAD_REACTORS
330
12124
102
}
330
12124
100
AcDbXrecord
280
     1
  1
ARM-INF-CORPO-C
  1
*ZC*
  1
*
  1
*
 70
     0
  1
*
  1
*
  0
XRECORD
  5
1216F
102
{ACAD_REACTORS
330
12124
102
}
330
12124
100
AcDbXrecord
280
     1
  1
ARM-INF-CORPO-E
  1
*ZE*
  1
*
  1
*
 70
     0
  1
*
  1
*
  0
XRECORD
  5
12170
102
{ACAD_REACTORS
330
12124
102
}
330
12124
100
AcDbXrecord
280
     1
  1
ARM-INF-CORPO-F
  1
*ZF*
  1
*
  1
*
 70
     0
  1
*
  1
*
  0
XRECORD
  5
12171
102
{ACAD_REACTORS
330
12124
102
}
330
12124
100
AcDbXrecord
280
     1
  1
ARM-INF-CORPO-G
  1
*ZG*
  1
*
  1
*
 70
     0
  1
*
  1
*
  0
XRECORD
  5
12172
102
{ACAD_REACTORS
330
12124
102
}
330
12124
100
AcDbXrecord
280
     1
  1
ARM-INF-CORPO-I
  1
*ZI*
  1
*
  1
*
 70
     0
  1
*
  1
*
  0
XRECORD
  5
12173
102
{ACAD_REACTORS
330
12124
102
}
330
12124
100
AcDbXrecord
280
     1
  1
ARM-SUP-CORPO-E
  1
*ZE*
  1
*
  1
*
 70
     0
  1
*
  1
*
  0
XRECORD
  5
12174
102
{ACAD_REACTORS
330
12124
102
}
330
12124
100
AcDbXrecord
280
     1
  1
ARM-SUP-CORPO-F
  1
*zf*
  1
*
  1
*
 70
     0
  1
*
  1
*
  0
XRECORD
  5
12175
102
{ACAD_REACTORS
330
12124
102
}
330
12124
100
AcDbXrecord
280
     1
  1
ARM-SUP-CORPO-I
  1
*ZI*,0
  1
*
  1
*
 70
     0
  1
*
  1
*
  0
XRECORD
  5
12176
102
{ACAD_REACTORS
330
12124
102
}
330
12124
100
AcDbXrecord
280
     1
  1
arm1
  1
10_0*arm*
  1
*
  1
*
 70
     0
  1
*
  1
*
  0
XRECORD
  5
12177
102
{ACAD_REACTORS
330
12124
102
}
330
12124
100
AcDbXrecord
280
     1
  1
arminf
  1
*inf*
  1
*
  1
*
 70
     0
  1
*
  1
*
  0
XRECORD
  5
12178
102
{ACAD_REACTORS
330
12124
102
}
330
12124
100
AcDbXrecord
280
     1
  1
armsup
  1
*sup*
  1
*
  1
*
 70
     0
  1
*
  1
*
  0
XRECORD
  5
12179
102
{ACAD_REACTORS
330
12124
102
}
330
12124
100
AcDbXrecord
280
     1
  1
ARPAS
  1
ARPAS-*
  1
*
  1
*
 70
     0
  1
*
  1
*
  0
XRECORD
  5
1217A
102
{ACAD_REACTORS
330
12124
102
}
330
12124
100
AcDbXrecord
280
     1
  1
arq
  1
*arq
  1
*
  1
*
 70
     0
  1
*
  1
*
  0
XRECORD
  5
1217B
102
{ACAD_REACTORS
330
12124
102
}
330
12124
100
AcDbXrecord
280
     1
  1
ARQ P0
  1
*P0*
  1
*
  1
*
 70
     0
  1
*
  1
*
  0
XRECORD
  5
1217C
102
{ACAD_REACTORS
330
12124
102
}
330
12124
100
AcDbXrecord
280
     1
  1
ARQ P1
  1
*P1*
  1
*
  1
*
 70
     0
  1
*
  1
*
  0
XRECORD
  5
1217D
102
{ACAD_REACTORS
330
12124
102
}
330
12124
100
AcDbXrecord
280
     1
  1
ARQUITECTURA
  1
*
  1
*
  1
*
 70
     3
  1
*
  1
*
  0
XRECORD
  5
1217E
102
{ACAD_REACTORS
330
12124
102
}
330
12124
100
AcDbXrecord
280
     1
  1
ARRANJOS EXTERIORES
  1
ARV*
  1
*
  1
*
 70
     0
  1
*
  1
*
  0
XRECORD
  5
1217F
102
{ACAD_REACTORS
330
12124
102
}
330
12124
100
AcDbXrecord
280
     1
  1
ARS
  1
ARS*
  1
*
  1
*
 70
     0
  1
*
  1
*
  0
XRECORD
  5
12180
102
{ACAD_REACTORS
330
12124
102
}
330
12124
100
AcDbXrecord
280
     1
  1
asnas
  1
ASNA*
  1
*
  1
*
 70
     0
  1
*
  1
*
  0
XRECORD
  5
12181
102
{ACAD_REACTORS
330
12124
102
}
330
12124
100
AcDbXrecord
280
     1
  1
AUX
  1
AUX*
  1
*
  1
*
 70
     0
  1
*
  1
*
  0
XRECORD
  5
12182
102
{ACAD_REACTORS
330
12124
102
}
330
12124
100
AcDbXrecord
280
     1
  1
AUXILIARES
  1
AUX*
  1
*
  1
*
 70
     0
  1
*
  1
*
  0
XRECORD
  5
12183
102
{ACAD_REACTORS
330
12124
102
}
330
12124
100
AcDbXrecord
280
     1
  1
b
  1
*
  1
5
  1
*
 70
     0
  1
*
  1
*
  0
XRECORD
  5
12184
102
{ACAD_REACTORS
330
12124
102
}
330
12124
100
AcDbXrecord
280
     1
  1
B-
  1
B-*
  1
*
  1
*
 70
     0
  1
*
  1
*
  0
XRECORD
  5
12185
102
{ACAD_REACTORS
330
12124
102
}
330
12124
100
AcDbXrecord
280
     1
  1
BAIXO
  1
*B
  1
*
  1
*
 70
     0
  1
*
  1
*
  0
XRECORD
  5
12186
102
{ACAD_REACTORS
330
12124
102
}
330
12124
100
AcDbXrecord
280
     1
  1
BAUS
  1
*BAU*
  1
*
  1
*
 70
     0
  1
*
  1
*
  0
XRECORD
  5
12187
102
{ACAD_REACTORS
330
12124
102
}
330
12124
100
AcDbXrecord
280
     1
  1
bet
  1
*bet*
  1
*
  1
*
 70
     0
  1
*
  1
*
  0
XRECORD
  5
12188
102
{ACAD_REACTORS
330
12124
102
}
330
12124
100
AcDbXrecord
280
     1
  1
BETAR
  1
est*
  1
*
  1
*
 70
     0
  1
*
  1
*
  0
XRECORD
  5
12189
102
{ACAD_REACTORS
330
12124
102
}
330
12124
100
AcDbXrecord
280
     1
  1
BETS
  1
*BET*
  1
*
  1
*
 70
     0
  1
*
  1
*
  0
XRECORD
  5
1218A
102
{ACAD_REACTORS
330
12124
102
}
330
12124
100
AcDbXrecord
280
     1
  1
BLO
  1
*COCOS*
  1
*
  1
*
 70
     0
  1
*
  1
*
  0
XRECORD
  5
1218B
102
{ACAD_REACTORS
330
12124
102
}
330
12124
100
AcDbXrecord
280
     1
  1
BLOCO2
  1
BL2*
  1
*
  1
*
 70
     0
  1
*
  1
*
  0
XRECORD
  5
1218C
102
{ACAD_REACTORS
330
12124
102
}
330
12124
100
AcDbXrecord
280
     1
  1
BLOCO3
  1
BL3*
  1
*
  1
*
 70
     0
  1
*
  1
*
  0
XRECORD
  5
1218D
102
{ACAD_REACTORS
330
12124
102
}
330
12124
100
AcDbXrecord
280
     1
  1
BRANCO
  1
*
  1
7*
  1
*
 70
     0
  1
*
  1
*
  0
XRECORD
  5
1218E
102
{ACAD_REACTORS
330
12124
102
}
330
12124
100
AcDbXrecord
280
     1
  1
C
  1
*-C
  1
*
  1
*
 70
     0
  1
*
  1
*
  0
XRECORD
  5
1218F
102
{ACAD_REACTORS
330
12124
102
}
330
12124
100
AcDbXrecord
280
     1
  1
C3
  1
*
  1
3
  1
*
 70
     0
  1
*
  1
*
  0
XRECORD
  5
12190
102
{ACAD_REACTORS
330
12124
102
}
330
12124
100
AcDbXrecord
280
     1
  1
cae
  1
*cae
  1
*
  1
*
 70
     0
  1
*
  1
*
  0
XRECORD
  5
12191
102
{ACAD_REACTORS
330
12124
102
}
330
12124
100
AcDbXrecord
280
     1
  1
CANETAS
  1
TR0*
  1
*
  1
*
 70
     0
  1
*
  1
*
  0
XRECORD
  5
12192
102
{ACAD_REACTORS
330
12124
102
}
330
12124
100
AcDbXrecord
280
     1
  1
cart
  1
*
  1
9
  1
*
 70
     0
  1
*
  1
*
  0
XRECORD
  5
12193
102
{ACAD_REACTORS
330
12124
102
}
330
12124
100
AcDbXrecord
280
     1
  1
CARTOGRAFIA
  1
*
  1
8
  1
*
 70
     0
  1
*
  1
*
  0
XRECORD
  5
12194
102
{ACAD_REACTORS
330
12124
102
}
330
12124
100
AcDbXrecord
280
     1
  1
Cartografia existente
  1
_*
  1
*
  1
*
 70
     0
  1
*
  1
*
  0
XRECORD
  5
12195
102
{ACAD_REACTORS
330
12124
102
}
330
12124
100
AcDbXrecord
280
     1
  1
CASAS
  1
CAS*
  1
*
  1
*
 70
     0
  1
*
  1
*
  0
XRECORD
  5
12196
102
{ACAD_REACTORS
330
12124
102
}
330
12124
100
AcDbXrecord
280
     1
  1
CCG
  1
*ZG-*
  1
*
  1
*
 70
     0
  1
*
  1
*
  0
XRECORD
  5
12197
102
{ACAD_REACTORS
330
12124
102
}
330
12124
100
AcDbXrecord
280
     1
  1
cena
  1
ars-cena*
  1
*
  1
*
 70
     0
  1
*
  1
*
  0
XRECORD
  5
12198
102
{ACAD_REACTORS
330
12124
102
}
330
12124
100
AcDbXrecord
280
     1
  1
CHEIOS
  1
M1-*-C
  1
*
  1
*
 70
     0
  1
*
  1
*
  0
XRECORD
  5
12199
102
{ACAD_REACTORS
330
12124
102
}
330
12124
100
AcDbXrecord
280
     1
  1
CIMA
  1
*C
  1
*
  1
*
 70
     0
  1
*
  1
*
  0
XRECORD
  5
1219A
102
{ACAD_REACTORS
330
12124
102
}
330
12124
100
AcDbXrecord
280
     1
  1
cir
  1
*cir
  1
*
  1
*
 70
     0
  1
*
  1
*
  0
XRECORD
  5
1219B
102
{ACAD_REACTORS
330
12124
102
}
330
12124
100
AcDbXrecord
280
     1
  1
CIRC
  1
*CIR*
  1
*
  1
*
 70
     0
  1
*
  1
*
  0
XRECORD
  5
1219C
102
{ACAD_REACTORS
330
12124
102
}
330
12124
100
AcDbXrecord
280
     1
  1
COB
  1
C*
  1
*
  1
*
 70
     0
  1
*
  1
*
  0
XRECORD
  5
1219D
102
{ACAD_REACTORS
330
12124
102
}
330
12124
100
AcDbXrecord
280
     1
  1
COBERTURA
  1
M1-COBERTURA-*
  1
*
  1
*
 70
     0
  1
*
  1
*
  0
XRECORD
  5
1219E
102
{ACAD_REACTORS
330
12124
102
}
330
12124
100
AcDbXrecord
280
     1
  1
COCOS
  1
*COCOS
  1
*
  1
*
 70
     0
  1
*
  1
*
  0
XRECORD
  5
1219F
102
{ACAD_REACTORS
330
12124
102
}
330
12124
100
AcDbXrecord
280
     1
  1
COD
  1
*CODPOR*
  1
*
  1
*
 70
     0
  1
*
  1
*
  0
XRECORD
  5
121A0
102
{ACAD_REACTORS
330
12124
102
}
330
12124
100
AcDbXrecord
280
     1
  1
colour141
  1
*
  1
141
  1
*
 70
     0
  1
*
  1
*
  0
XRECORD
  5
121A1
102
{ACAD_REACTORS
330
12124
102
}
330
12124
100
AcDbXrecord
280
     1
  1
colour180
  1
*
  1
180
  1
*
 70
     0
  1
*
  1
*
  0
XRECORD
  5
121A2
102
{ACAD_REACTORS
330
12124
102
}
330
12124
100
AcDbXrecord
280
     1
  1
colour32
  1
*
  1
32
  1
*
 70
     0
  1
*
  1
*
  0
XRECORD
  5
121A3
102
{ACAD_REACTORS
330
12124
102
}
330
12124
100
AcDbXrecord
280
     1
  1
conces
  1
conces*
  1
*
  1
*
 70
     0
  1
*
  1
*
  0
XRECORD
  5
121A4
102
{ACAD_REACTORS
330
12124
102
}
330
12124
100
AcDbXrecord
280
     1
  1
cor 1
  1
*
  1
*
  1
*
 70
     0
  1
0.09 mm
  1
*
  0
XRECORD
  5
121A5
102
{ACAD_REACTORS
330
12124
102
}
330
12124
100
AcDbXrecord
280
     1
  1
cor 9
  1
*
  1
9
  1
*
 70
     0
  1
*
  1
*
  0
XRECORD
  5
121A6
102
{ACAD_REACTORS
330
12124
102
}
330
12124
100
AcDbXrecord
280
     1
  1
CORPO E
  1
ZE*
  1
*
  1
*
 70
     0
  1
*
  1
*
  0
XRECORD
  5
121A7
102
{ACAD_REACTORS
330
12124
102
}
330
12124
100
AcDbXrecord
280
     1
  1
corte
  1
corte
  1
*
  1
*
 70
     0
  1
*
  1
*
  0
XRECORD
  5
121A8
102
{ACAD_REACTORS
330
12124
102
}
330
12124
100
AcDbXrecord
280
     1
  1
Corte 1
  1
c1-*
  1
*
  1
*
 70
     0
  1
*
  1
*
  0
XRECORD
  5
121A9
102
{ACAD_REACTORS
330
12124
102
}
330
12124
100
AcDbXrecord
280
     1
  1
Corte 2
  1
c2-*
  1
*
  1
*
 70
     0
  1
*
  1
*
  0
XRECORD
  5
121AA
102
{ACAD_REACTORS
330
12124
102
}
330
12124
100
AcDbXrecord
280
     1
  1
Corte 3
  1
c3-*
  1
*
  1
*
 70
     0
  1
*
  1
*
  0
XRECORD
  5
121AB
102
{ACAD_REACTORS
330
12124
102
}
330
12124
100
AcDbXrecord
280
     1
  1
Corte 4
  1
c4-*
  1
*
  1
*
 70
     0
  1
*
  1
*
  0
XRECORD
  5
121AC
102
{ACAD_REACTORS
330
12124
102
}
330
12124
100
AcDbXrecord
280
     1
  1
CORTE A
  1
*-CAA-*
  1
*
  1
*
 70
     0
  1
*
  1
*
  0
XRECORD
  5
121AD
102
{ACAD_REACTORS
330
12124
102
}
330
12124
100
AcDbXrecord
280
     1
  1
CORTE B
  1
*-CBB-*
  1
*
  1
*
 70
     0
  1
*
  1
*
  0
XRECORD
  5
121AE
102
{ACAD_REACTORS
330
12124
102
}
330
12124
100
AcDbXrecord
280
     1
  1
CORTE C
  1
*-CCC-*
  1
*
  1
*
 70
     0
  1
*
  1
*
  0
XRECORD
  5
121AF
102
{ACAD_REACTORS
330
12124
102
}
330
12124
100
AcDbXrecord
280
     1
  1
CORTE D
  1
*-CDD-*
  1
*
  1
*
 70
     0
  1
*
  1
*
  0
XRECORD
  5
121B0
102
{ACAD_REACTORS
330
12124
102
}
330
12124
100
AcDbXrecord
280
     1
  1
CORTE E
  1
*-CEE-*
  1
*
  1
*
 70
     0
  1
*
  1
*
  0
XRECORD
  5
121B1
102
{ACAD_REACTORS
330
12124
102
}
330
12124
100
AcDbXrecord
280
     1
  1
CORTE F
  1
*-CFF-*
  1
*
  1
*
 70
     0
  1
*
  1
*
  0
XRECORD
  5
121B2
102
{ACAD_REACTORS
330
12124
102
}
330
12124
100
AcDbXrecord
280
     1
  1
cortes
  1
11*
  1
*
  1
*
 70
     0
  1
*
  1
*
  0
XRECORD
  5
121B3
102
{ACAD_REACTORS
330
12124
102
}
330
12124
100
AcDbXrecord
280
     1
  1
cortes_12
  1
12*
  1
*
  1
*
 70
     0
  1
*
  1
*
  0
XRECORD
  5
121B4
102
{ACAD_REACTORS
330
12124
102
}
330
12124
100
AcDbXrecord
280
     1
  1
cot
  1
*cot*
  1
*
  1
*
 70
     0
  1
*
  1
*
  0
XRECORD
  5
121B5
102
{ACAD_REACTORS
330
12124
102
}
330
12124
100
AcDbXrecord
280
     1
  1
cotas
  1
*cotas*
  1
*
  1
*
 70
     0
  1
*
  1
*
  0
XRECORD
  5
121B6
102
{ACAD_REACTORS
330
12124
102
}
330
12124
100
AcDbXrecord
280
     1
  1
crt
  1
*crt
  1
*
  1
*
 70
     0
  1
*
  1
*
  0
XRECORD
  5
121B7
102
{ACAD_REACTORS
330
12124
102
}
330
12124
100
AcDbXrecord
280
     1
  1
CTA
  1
*CTA*
  1
*
  1
*
 70
     0
  1
*
  1
*
  0
XRECORD
  5
121B8
102
{ACAD_REACTORS
330
12124
102
}
330
12124
100
AcDbXrecord
280
     1
  1
CURVAS
  1
*
  1
16
  1
*
 70
     0
  1
*
  1
*
  0
XRECORD
  5
121B9
102
{ACAD_REACTORS
330
12124
102
}
330
12124
100
AcDbXrecord
280
     1
  1
Curve di livello
  1
3d-liv*
  1
*
  1
*
 70
     0
  1
*
  1
*
  0
XRECORD
  5
121BA
102
{ACAD_REACTORS
330
12124
102
}
330
12124
100
AcDbXrecord
280
     1
  1
cyan
  1
*
  1
4
  1
*
 70
     0
  1
*
  1
*
  0
XRECORD
  5
121BB
102
{ACAD_REACTORS
330
12124
102
}
330
12124
100
AcDbXrecord
280
     1
  1
DD
  1
*
  1
9
  1
*
 70
     0
  1
*
  1
*
  0
XRECORD
  5
121BC
102
{ACAD_REACTORS
330
12124
102
}
330
12124
100
AcDbXrecord
280
     1
  1
Deckenspiegel
  1
Decken*
  1
*
  1
*
 70
     1
  1
*
  1
*
  0
XRECORD
  5
121BD
102
{ACAD_REACTORS
330
12124
102
}
330
12124
100
AcDbXrecord
280
     1
  1
DESLIGADO
  1
*
  1
*
  1
*
 70
     3
  1
*
  1
*
  0
XRECORD
  5
121BE
102
{ACAD_REACTORS
330
12124
102
}
330
12124
100
AcDbXrecord
280
     1
  1
di
  1
di-1
  1
*
  1
*
 70
     0
  1
*
  1
*
  0
XRECORD
  5
121BF
102
{ACAD_REACTORS
330
12124
102
}
330
12124
100
AcDbXrecord
280
     1
  1
dim
  1
*dim
  1
*
  1
*
 70
     0
  1
*
  1
*
  0
XRECORD
  5
121C0
102
{ACAD_REACTORS
330
12124
102
}
330
12124
100
AcDbXrecord
280
     1
  1
DIV
  1
DIV*
  1
*
  1
*
 70
     0
  1
*
  1
*
  0
XRECORD
  5
121C1
102
{ACAD_REACTORS
330
12124
102
}
330
12124
100
AcDbXrecord
280
     1
  1
Dtl-Cut
  1
*Dtl-Cut*
  1
*
  1
*
 70
     0
  1
*
  1
*
  0
XRECORD
  5
121C2
102
{ACAD_REACTORS
330
12124
102
}
330
12124
100
AcDbXrecord
280
     1
  1
e
  1
*
  1
*
  1
*
 70
     0
  1
*
  1
*
  0
XRECORD
  5
121C3
102
{ACAD_REACTORS
330
12124
102
}
330
12124
100
AcDbXrecord
280
     1
  1
efi
  1
*efi*
  1
*
  1
*
 70
     0
  1
*
  1
*
  0
XRECORD
  5
121C4
102
{ACAD_REACTORS
330
12124
102
}
330
12124
100
AcDbXrecord
280
     1
  1
EIXOS
  1
EIX*
  1
*
  1
*
 70
     0
  1
*
  1
*
  0
XRECORD
  5
121C5
102
{ACAD_REACTORS
330
12124
102
}
330
12124
100
AcDbXrecord
280
     1
  1
ELECTRICAL LAYERS
  1
E*
  1
*
  1
*
 70
     0
  1
*
  1
*
  0
XRECORD
  5
121C6
102
{ACAD_REACTORS
330
12124
102
}
330
12124
100
AcDbXrecord
280
     1
  1
elev
  1
*ele*
  1
*
  1
*
 70
     0
  1
*
  1
*
  0
XRECORD
  5
121C7
102
{ACAD_REACTORS
330
12124
102
}
330
12124
100
AcDbXrecord
280
     1
  1
engelser
  1
A_*
  1
*
  1
*
 70
   829
  1
*
  1
*
  0
XRECORD
  5
121C8
102
{ACAD_REACTORS
330
12124
102
}
330
12124
100
AcDbXrecord
280
     1
  1
ENGENHEIROS
  1
*
  1
*
  1
*
 70
     0
  1
*
  1
*
  0
XRECORD
  5
121C9
102
{ACAD_REACTORS
330
12124
102
}
330
12124
100
AcDbXrecord
280
     1
  1
ENTREPOSTO
  1
ENTREPOSTO
  1
*
  1
*
 70
     0
  1
*
  1
*
  0
XRECORD
  5
121CA
102
{ACAD_REACTORS
330
12124
102
}
330
12124
100
AcDbXrecord
280
     1
  1
ENVOLVENTE
  1
EXT-*
  1
*
  1
*
 70
     0
  1
*
  1
*
  0
XRECORD
  5
121CB
102
{ACAD_REACTORS
330
12124
102
}
330
12124
100
AcDbXrecord
280
     1
  1
equipamento
  1
eq*
  1
*
  1
*
 70
     0
  1
*
  1
*
  0
XRECORD
  5
121CC
102
{ACAD_REACTORS
330
12124
102
}
330
12124
100
AcDbXrecord
280
     1
  1
erco
  1
*
  1
*
  1
*
 70
     0
  1
*
  1
*
  0
XRECORD
  5
121CD
102
{ACAD_REACTORS
330
12124
102
}
330
12124
100
AcDbXrecord
280
     1
  1
ESCALA 1-2
  1
1-2_*
  1
*
  1
*
 70
     0
  1
*
  1
*
  0
XRECORD
  5
121CE
102
{ACAD_REACTORS
330
12124
102
}
330
12124
100
AcDbXrecord
280
     1
  1
Esgotos
  1
*
  1
*
  1
*
 70
    13
  1
*
  1
*
  0
XRECORD
  5
121CF
102
{ACAD_REACTORS
330
12124
102
}
330
12124
100
AcDbXrecord
280
     1
  1
esgots
  1
*
  1
*
  1
*
 70
    13
  1
*
  1
*
  0
XRECORD
  5
121D0
102
{ACAD_REACTORS
330
12124
102
}
330
12124
100
AcDbXrecord
280
     1
  1
EST
  1
*EST*
  1
*
  1
*
 70
     0
  1
*
  1
*
  0
XRECORD
  5
121D1
102
{ACAD_REACTORS
330
12124
102
}
330
12124
100
AcDbXrecord
280
     1
  1
est- -2
  1
165-99-04*
  1
*
  1
*
 70
     0
  1
*
  1
*
  0
XRECORD
  5
121D2
102
{ACAD_REACTORS
330
12124
102
}
330
12124
100
AcDbXrecord
280
     1
  1
est- -3
  1
165-99-03*
  1
*
  1
*
 70
     0
  1
*
  1
*
  0
XRECORD
  5
121D3
102
{ACAD_REACTORS
330
12124
102
}
330
12124
100
AcDbXrecord
280
     1
  1
est- -4
  1
165-99-02*
  1
*
  1
*
 70
     0
  1
*
  1
*
  0
XRECORD
  5
121D4
102
{ACAD_REACTORS
330
12124
102
}
330
12124
100
AcDbXrecord
280
     1
  1
ESTRUT
  1
13*
  1
*
  1
*
 70
     0
  1
*
  1
*
  0
XRECORD
  5
121D5
102
{ACAD_REACTORS
330
12124
102
}
330
12124
100
AcDbXrecord
280
     1
  1
ESTRUTURA
  1
ESTR-*
  1
*
  1
*
 70
     0
  1
*
  1
*
  0
XRECORD
  5
121D6
102
{ACAD_REACTORS
330
12124
102
}
330
12124
100
AcDbXrecord
280
     1
  1
ex
  1
*
  1
*
  1
*
 70
     0
  1
*
  1
*
  0
XRECORD
  5
121D7
102
{ACAD_REACTORS
330
12124
102
}
330
12124
100
AcDbXrecord
280
     1
  1
execpilj
  1
*ZJ*
  1
*
  1
*
 70
     0
  1
*
  1
*
  0
XRECORD
  5
121D8
102
{ACAD_REACTORS
330
12124
102
}
330
12124
100
AcDbXrecord
280
     1
  1
EXTERIORES
  1
EXT*
  1
*
  1
*
 70
     0
  1
*
  1
*
  0
XRECORD
  5
121D9
102
{ACAD_REACTORS
330
12124
102
}
330
12124
100
AcDbXrecord
280
     1
  1
F
  1
*-F
  1
*
  1
*
 70
     0
  1
*
  1
*
  0
XRECORD
  5
121DA
102
{ACAD_REACTORS
330
12124
102
}
330
12124
100
AcDbXrecord
280
     1
  1
F16P25POS10_19
  1
F16P25POS1*
  1
*
  1
*
 70
     0
  1
*
  1
*
  0
XRECORD
  5
121DB
102
{ACAD_REACTORS
330
12124
102
}
330
12124
100
AcDbXrecord
280
     1
  1
fer
  1
*
  1
*
  1
*
 70
     0
  1
*
  1
*
  0
XRECORD
  5
121DC
102
{ACAD_REACTORS
330
12124
102
}
330
12124
100
AcDbXrecord
280
     1
  1
fin
  1
*fin*
  1
*
  1
*
 70
     0
  1
*
  1
*
  0
XRECORD
  5
121DD
102
{ACAD_REACTORS
330
12124
102
}
330
12124
100
AcDbXrecord
280
     1
  1
FINOS
  1
M1-*-F
  1
*
  1
*
 70
     0
  1
*
  1
*
  0
XRECORD
  5
121DE
102
{ACAD_REACTORS
330
12124
102
}
330
12124
100
AcDbXrecord
280
     1
  1
Foglio
  1
SQ*
  1
*
  1
*
 70
     0
  1
*
  1
*
  0
XRECORD
  5
121DF
102
{ACAD_REACTORS
330
12124
102
}
330
12124
100
AcDbXrecord
280
     1
  1
FOLHA
  1
L*
  1
*
  1
*
 70
     0
  1
*
  1
*
  0
XRECORD
  5
121E0
102
{ACAD_REACTORS
330
12124
102
}
330
12124
100
AcDbXrecord
280
     1
  1
FOLHAS
  1
*FOLHA*
  1
*
  1
*
 70
     0
  1
*
  1
*
  0
XRECORD
  5
121E1
102
{ACAD_REACTORS
330
12124
102
}
330
12124
100
AcDbXrecord
280
     1
  1
FOLHAS-VIEW
  1
*FOLHA*
  1
*
  1
*
 70
     0
  1
*
  1
*
  0
XRECORD
  5
121E2
102
{ACAD_REACTORS
330
12124
102
}
330
12124
100
AcDbXrecord
280
     1
  1
FR-ACT-VP
  1
*
  1
*
  1
*
 70
    16
  1
*
  1
*
  0
XRECORD
  5
121E3
102
{ACAD_REACTORS
330
12124
102
}
330
12124
100
AcDbXrecord
280
     1
  1
frees
  1
*
  1
*
  1
*
 70
     4
  1
*
  1
*
  0
XRECORD
  5
121E4
102
{ACAD_REACTORS
330
12124
102
}
330
12124
100
AcDbXrecord
280
     1
  1
freeze
  1
*
  1
*
  1
*
 70
     4
  1
*
  1
*
  0
XRECORD
  5
121E5
102
{ACAD_REACTORS
330
12124
102
}
330
12124
100
AcDbXrecord
280
     1
  1
frezze
  1
*
  1
*
  1
*
 70
    12
  1
*
  1
*
  0
XRECORD
  5
121E6
102
{ACAD_REACTORS
330
12124
102
}
330
12124
100
AcDbXrecord
280
     1
  1
FRIZADOS
  1
*
  1
*
  1
*
 70
     4
  1
*
  1
*
  0
XRECORD
  5
121E7
102
{ACAD_REACTORS
330
12124
102
}
330
12124
100
AcDbXrecord
280
     1
  1
FROZEN
  1
*
  1
*
  1
*
 70
     4
  1
*
  1
*
  0
XRECORD
  5
121E8
102
{ACAD_REACTORS
330
12124
102
}
330
12124
100
AcDbXrecord
280
     1
  1
FVA
  1
FVA-**
  1
*
  1
*
 70
     0
  1
*
  1
*
  0
XRECORD
  5
121E9
102
{ACAD_REACTORS
330
12124
102
}
330
12124
100
AcDbXrecord
280
     1
  1
G
  1
*G*
  1
*
  1
*
 70
     0
  1
*
  1
*
  0
XRECORD
  5
121EA
102
{ACAD_REACTORS
330
12124
102
}
330
12124
100
AcDbXrecord
280
     1
  1
GERAL
  1
O-*
  1
*
  1
*
 70
     0
  1
*
  1
*
  0
XRECORD
  5
121EB
102
{ACAD_REACTORS
330
12124
102
}
330
12124
100
AcDbXrecord
280
     1
  1
gla
  1
pl*
  1
*
  1
*
 70
     1
  1
*
  1
*
  0
XRECORD
  5
121EC
102
{ACAD_REACTORS
330
12124
102
}
330
12124
100
AcDbXrecord
280
     1
  1
gpo
  1
gp0*
  1
*
  1
*
 70
     0
  1
*
  1
*
  0
XRECORD
  5
121ED
102
{ACAD_REACTORS
330
12124
102
}
330
12124
100
AcDbXrecord
280
     1
  1
grelha
  1
grelha*
  1
*
  1
*
 70
     0
  1
*
  1
*
  0
XRECORD
  5
121EE
102
{ACAD_REACTORS
330
12124
102
}
330
12124
100
AcDbXrecord
280
     1
  1
GRID
  1
GRID_*
  1
*
  1
*
 70
     0
  1
*
  1
*
  0
XRECORD
  5
121EF
102
{ACAD_REACTORS
330
12124
102
}
330
12124
100
AcDbXrecord
280
     1
  1
grises
  1
h*
  1
*
  1
*
 70
     0
  1
*
  1
*
  0
XRECORD
  5
121F0
102
{ACAD_REACTORS
330
12124
102
}
330
12124
100
AcDbXrecord
280
     1
  1
GRIZES
  1
H*
  1
*
  1
*
 70
     0
  1
*
  1
*
  0
XRECORD
  5
121F1
102
{ACAD_REACTORS
330
12124
102
}
330
12124
100
AcDbXrecord
280
     1
  1
GUIA
  1
LA*
  1
*
  1
*
 70
     0
  1
*
  1
*
  0
XRECORD
  5
121F2
102
{ACAD_REACTORS
330
12124
102
}
330
12124
100
AcDbXrecord
280
     1
  1
H
  1
*H
  1
*
  1
*
 70
     0
  1
*
  1
*
  0
XRECORD
  5
121F3
102
{ACAD_REACTORS
330
12124
102
}
330
12124
100
AcDbXrecord
280
     1
  1
hat
  1
*hat
  1
*
  1
*
 70
     0
  1
*
  1
*
  0
XRECORD
  5
121F4
102
{ACAD_REACTORS
330
12124
102
}
330
12124
100
AcDbXrecord
280
     1
  1
hatch
  1
*_h
  1
*
  1
*
 70
     0
  1
*
  1
*
  0
XRECORD
  5
121F5
102
{ACAD_REACTORS
330
12124
102
}
330
12124
100
AcDbXrecord
280
     1
  1
hatch wall
  1
*hatch-wall*
  1
*
  1
*
 70
     0
  1
*
  1
*
  0
XRECORD
  5
121F6
102
{ACAD_REACTORS
330
12124
102
}
330
12124
100
AcDbXrecord
280
     1
  1
HIDRAULICA
  1
Afria1
  1
*
  1
*
 70
     0
  1
*
  1
*
  0
XRECORD
  5
121F7
102
{ACAD_REACTORS
330
12124
102
}
330
12124
100
AcDbXrecord
280
     1
  1
HS
  1
H*
  1
*
  1
*
 70
     0
  1
*
  1
*
  0
XRECORD
  5
121F8
102
{ACAD_REACTORS
330
12124
102
}
330
12124
100
AcDbXrecord
280
     1
  1
i
  1
i*
  1
*
  1
*
 70
     0
  1
*
  1
*
  0
XRECORD
  5
121F9
102
{ACAD_REACTORS
330
12124
102
}
330
12124
100
AcDbXrecord
280
     1
  1
IE´s Layers
  1
A_*
  1
*
  1
*
 70
    12
  1
*
  1
*
  0
XRECORD
  5
121FA
102
{ACAD_REACTORS
330
12124
102
}
330
12124
100
AcDbXrecord
280
     1
  1
ig
  1
ig*
  1
*
  1
*
 70
     0
  1
*
  1
*
  0
XRECORD
  5
121FB
102
{ACAD_REACTORS
330
12124
102
}
330
12124
100
AcDbXrecord
280
     1
  1
il
  1
*il*
  1
*
  1
*
 70
     0
  1
*
  1
*
  0
XRECORD
  5
121FC
102
{ACAD_REACTORS
330
12124
102
}
330
12124
100
AcDbXrecord
280
     1
  1
ILUM
  1
*ILUM*
  1
*
  1
*
 70
     0
  1
*
  1
*
  0
XRECORD
  5
121FD
102
{ACAD_REACTORS
330
12124
102
}
330
12124
100
AcDbXrecord
280
     1
  1
ilum_ant
  1
*
  1
*
  1
*
 70
     0
  1
*
  1
*
  0
XRECORD
  5
121FE
102
{ACAD_REACTORS
330
12124
102
}
330
12124
100
AcDbXrecord
280
     1
  1
implant_F
  1
*
  1
*
  1
*
 70
    16
  1
*
  1
*
  0
XRECORD
  5
121FF
102
{ACAD_REACTORS
330
12124
102
}
330
12124
100
AcDbXrecord
280
     1
  1
IMPLANTAÇÃO
  1
imp*
  1
*
  1
*
 70
     0
  1
*
  1
*
  0
XRECORD
  5
12200
102
{ACAD_REACTORS
330
12124
102
}
330
12124
100
AcDbXrecord
280
     1
  1
inv
  1
*inv
  1
*
  1
*
 70
     0
  1
*
  1
*
  0
XRECORD
  5
12201
102
{ACAD_REACTORS
330
12124
102
}
330
12124
100
AcDbXrecord
280
     1
  1
Jorge
  1
*FCP
  1
*
  1
*
 70
     0
  1
*
  1
*
  0
XRECORD
  5
12202
102
{ACAD_REACTORS
330
12124
102
}
330
12124
100
AcDbXrecord
280
     1
  1
Karsten
  1
k-*
  1
*
  1
*
 70
     0
  1
*
  1
*
  0
XRECORD
  5
12203
102
{ACAD_REACTORS
330
12124
102
}
330
12124
100
AcDbXrecord
280
     1
  1
l
  1
*
  1
*
  1
*
 70
     0
  1
*
  1
*
  0
XRECORD
  5
12204
102
{ACAD_REACTORS
330
12124
102
}
330
12124
100
AcDbXrecord
280
     1
  1
L20
  1
*
  1
*
  1
*
 70
     0
  1
*
  1
*
  0
XRECORD
  5
12205
102
{ACAD_REACTORS
330
12124
102
}
330
12124
100
AcDbXrecord
280
     1
  1
LAYER QUE COMEÇAM POR V
  1
V*
  1
*
  1
*
 70
     0
  1
*
  1
*
  0
XRECORD
  5
12206
102
{ACAD_REACTORS
330
12124
102
}
330
12124
100
AcDbXrecord
280
     1
  1
Layers a 0.13mm
  1
*
  1
*
  1
*
 70
    13
  1
*
  1
*
  0
XRECORD
  5
12207
102
{ACAD_REACTORS
330
12124
102
}
330
12124
100
AcDbXrecord
280
     1
  1
Layers a 0.13mm1
  1
*
  1
*
  1
*
 70
     0
  1
0.13 mm
  1
*
  0
XRECORD
  5
12208
102
{ACAD_REACTORS
330
12124
102
}
330
12124
100
AcDbXrecord
280
     1
  1
Layers do Projecto
  1
_*
  1
*
  1
*
 70
     0
  1
*
  1
*
  0
XRECORD
  5
12209
102
{ACAD_REACTORS
330
12124
102
}
330
12124
100
AcDbXrecord
280
     1
  1
LAYERS ESTRUTURA
  1
1-E*
  1
*
  1
*
 70
     0
  1
*
  1
*
  0
XRECORD
  5
1220A
102
{ACAD_REACTORS
330
12124
102
}
330
12124
100
AcDbXrecord
280
     1
  1
LAYERSF
  1
F_*
  1
*
  1
*
 70
     0
  1
*
  1
*
  0
XRECORD
  5
1220B
102
{ACAD_REACTORS
330
12124
102
}
330
12124
100
AcDbXrecord
280
     1
  1
lixo
  1
*
  1
*
  1
*
 70
  3072
  1
*
  1
*
  0
XRECORD
  5
1220C
102
{ACAD_REACTORS
330
12124
102
}
330
12124
100
AcDbXrecord
280
     1
  1
ll
  1
*
  1
*
  1
*
 70
     0
  1
*
  1
*
  0
XRECORD
  5
1220D
102
{ACAD_REACTORS
330
12124
102
}
330
12124
100
AcDbXrecord
280
     1
  1
lock
  1
*
  1
*
  1
*
 70
   256
  1
*
  1
*
  0
XRECORD
  5
1220E
102
{ACAD_REACTORS
330
12124
102
}
330
12124
100
AcDbXrecord
280
     1
  1
LOCKS
  1
*
  1
*
  1
*
 70
   256
  1
*
  1
*
  0
XRECORD
  5
1220F
102
{ACAD_REACTORS
330
12124
102
}
330
12124
100
AcDbXrecord
280
     1
  1
LOTE 1
  1
1*
  1
*
  1
*
 70
     0
  1
*
  1
*
  0
XRECORD
  5
12210
102
{ACAD_REACTORS
330
12124
102
}
330
12124
100
AcDbXrecord
280
     1
  1
LOTE 2
  1
2*
  1
*
  1
*
 70
     0
  1
*
  1
*
  0
XRECORD
  5
12211
102
{ACAD_REACTORS
330
12124
102
}
330
12124
100
AcDbXrecord
280
     1
  1
LOTE6
  1
6L*
  1
*
  1
*
 70
     0
  1
*
  1
*
  0
XRECORD
  5
12212
102
{ACAD_REACTORS
330
12124
102
}
330
12124
100
AcDbXrecord
280
     1
  1
LOTE7
  1
7L*
  1
*
  1
*
 70
     0
  1
*
  1
*
  0
XRECORD
  5
12213
102
{ACAD_REACTORS
330
12124
102
}
330
12124
100
AcDbXrecord
280
     1
  1
LOTES
  1
LT*
  1
*
  1
*
 70
     0
  1
*
  1
*
  0
XRECORD
  5
12214
102
{ACAD_REACTORS
330
12124
102
}
330
12124
100
AcDbXrecord
280
     1
  1
LT22
  1
*
  1
*
  1
*
 70
     0
  1
*
  1
*
  0
XRECORD
  5
12215
102
{ACAD_REACTORS
330
12124
102
}
330
12124
100
AcDbXrecord
280
     1
  1
LTP
  1
LTP*
  1
*
  1
*
 70
     0
  1
*
  1
*
  0
XRECORD
  5
12216
102
{ACAD_REACTORS
330
12124
102
}
330
12124
100
AcDbXrecord
280
     1
  1
LUI
  1
*
  1
*
  1
*
 70
     0
  1
0.09mm
  1
*
  0
XRECORD
  5
12217
102
{ACAD_REACTORS
330
12124
102
}
330
12124
100
AcDbXrecord
280
     1
  1
m
  1
m*
  1
*
  1
*
 70
     0
  1
*
  1
*
  0
XRECORD
  5
12218
102
{ACAD_REACTORS
330
12124
102
}
330
12124
100
AcDbXrecord
280
     1
  1
M-DESENHO-LEGENDA
  1
*
  1
*
  1
*
 70
     0
  1
*
  1
*
  0
XRECORD
  5
12219
102
{ACAD_REACTORS
330
12124
102
}
330
12124
100
AcDbXrecord
280
     1
  1
m1
  1
*
  1
*
  1
*
 70
     0
  1
*
  1
*
  0
XRECORD
  5
1221A
102
{ACAD_REACTORS
330
12124
102
}
330
12124
100
AcDbXrecord
280
     1
  1
M1-ALÇADOS
  1
M1-A-*
  1
*
  1
*
 70
     1
  1
*
  1
*
  0
XRECORD
  5
1221B
102
{ACAD_REACTORS
330
12124
102
}
330
12124
100
AcDbXrecord
280
     1
  1
M1-CAVE
  1
M1-CAVE-*
  1
*
  1
*
 70
     0
  1
*
  1
*
  0
XRECORD
  5
1221C
102
{ACAD_REACTORS
330
12124
102
}
330
12124
100
AcDbXrecord
280
     1
  1
M1-PISO 0
  1
M1-0-*
  1
*
  1
*
 70
     1
  1
*
  1
*
  0
XRECORD
  5
1221D
102
{ACAD_REACTORS
330
12124
102
}
330
12124
100
AcDbXrecord
280
     1
  1
M1-PISO 1
  1
M1-1-*
  1
*
  1
*
 70
     0
  1
*
  1
*
  0
XRECORD
  5
1221E
102
{ACAD_REACTORS
330
12124
102
}
330
12124
100
AcDbXrecord
280
     1
  1
mag
  1
*
  1
magenta
  1
*
 70
     0
  1
*
  1
*
  0
XRECORD
  5
1221F
102
{ACAD_REACTORS
330
12124
102
}
330
12124
100
AcDbXrecord
280
     1
  1
maistxt
  1
cota*
  1
*
  1
*
 70
     0
  1
*
  1
*
  0
XRECORD
  5
12220
102
{ACAD_REACTORS
330
12124
102
}
330
12124
100
AcDbXrecord
280
     1
  1
malha
  1
*mlh
  1
*
  1
*
 70
     0
  1
*
  1
*
  0
XRECORD
  5
12221
102
{ACAD_REACTORS
330
12124
102
}
330
12124
100
AcDbXrecord
280
     1
  1
MATERIALS
  1
M-*
  1
*
  1
*
 70
     0
  1
*
  1
*
  0
XRECORD
  5
12222
102
{ACAD_REACTORS
330
12124
102
}
330
12124
100
AcDbXrecord
280
     1
  1
medições
  1
med*
  1
*
  1
*
 70
     0
  1
*
  1
*
  0
XRECORD
  5
12223
102
{ACAD_REACTORS
330
12124
102
}
330
12124
100
AcDbXrecord
280
     1
  1
MEUS
  1
G-*
  1
*
  1
*
 70
     0
  1
*
  1
*
  0
XRECORD
  5
12224
102
{ACAD_REACTORS
330
12124
102
}
330
12124
100
AcDbXrecord
280
     1
  1
Moldura
  1
?????????????????21*
  1
*
  1
*
 70
     0
  1
*
  1
*
  0
XRECORD
  5
12225
102
{ACAD_REACTORS
330
12124
102
}
330
12124
100
AcDbXrecord
280
     1
  1
MOVEIS
  1
M1-*-M
  1
*
  1
*
 70
     0
  1
*
  1
*
  0
XRECORD
  5
12226
102
{ACAD_REACTORS
330
12124
102
}
330
12124
100
AcDbXrecord
280
     1
  1
MS2-FLP
  1
*RO*
  1
*
  1
*
 70
     0
  1
*
  1
*
  0
XRECORD
  5
12227
102
{ACAD_REACTORS
330
12124
102
}
330
12124
100
AcDbXrecord
280
     1
  1
MUROS
  1
M*
  1
*
  1
*
 70
     0
  1
*
  1
*
  0
XRECORD
  5
12228
102
{ACAD_REACTORS
330
12124
102
}
330
12124
100
AcDbXrecord
280
     1
  1
NER
  1
*NER*
  1
*
  1
*
 70
     0
  1
*
  1
*
  0
XRECORD
  5
12229
102
{ACAD_REACTORS
330
12124
102
}
330
12124
100
AcDbXrecord
280
     1
  1
normal
  1
*
  1
*
  1
*
 70
     0
  1
*
  1
*
  0
XRECORD
  5
1222A
102
{ACAD_REACTORS
330
12124
102
}
330
12124
100
AcDbXrecord
280
     1
  1
Not frozen
  1
*
  1
*
  1
*
 70
    12
  1
*
  1
*
  0
XRECORD
  5
1222B
102
{ACAD_REACTORS
330
12124
102
}
330
12124
100
AcDbXrecord
280
     1
  1
NPK
  1
NPK*
  1
*
  1
*
 70
     0
  1
*
  1
*
  0
XRECORD
  5
1222C
102
{ACAD_REACTORS
330
12124
102
}
330
12124
100
AcDbXrecord
280
     1
  1
NPK-3D
  1
NPK-3D-*
  1
*
  1
*
 70
     0
  1
*
  1
*
  0
XRECORD
  5
1222D
102
{ACAD_REACTORS
330
12124
102
}
330
12124
100
AcDbXrecord
280
     1
  1
NPK-ARV
  1
NPK-ARV*.*
  1
*
  1
*
 70
     0
  1
*
  1
*
  0
XRECORD
  5
1222E
102
{ACAD_REACTORS
330
12124
102
}
330
12124
100
AcDbXrecord
280
     1
  1
NPK-CRT
  1
NPK-CRT*
  1
*
  1
*
 70
     0
  1
*
  1
*
  0
XRECORD
  5
1222F
102
{ACAD_REACTORS
330
12124
102
}
330
12124
100
AcDbXrecord
280
     1
  1
NPK-PAV
  1
NPK-PAV*.*
  1
*
  1
*
 70
     0
  1
*
  1
*
  0
XRECORD
  5
12230
102
{ACAD_REACTORS
330
12124
102
}
330
12124
100
AcDbXrecord
280
     1
  1
NPK-V
  1
NPK-V*
  1
*
  1
*
 70
     0
  1
*
  1
*
  0
XRECORD
  5
12231
102
{ACAD_REACTORS
330
12124
102
}
330
12124
100
AcDbXrecord
280
     1
  1
NPK-V-
  1
NPK-V-*
  1
*
  1
*
 70
     0
  1
*
  1
*
  0
XRECORD
  5
12232
102
{ACAD_REACTORS
330
12124
102
}
330
12124
100
AcDbXrecord
280
     1
  1
NPK.CRT
  1
NPK-CRT*
  1
*
  1
*
 70
     0
  1
*
  1
*
  0
XRECORD
  5
12233
102
{ACAD_REACTORS
330
12124
102
}
330
12124
100
AcDbXrecord
280
     1
  1
NUMERO
  1
*
  1
5
  1
*
 70
   829
  1
*
  1
*
  0
XRECORD
  5
12234
102
{ACAD_REACTORS
330
12124
102
}
330
12124
100
AcDbXrecord
280
     1
  1
o
  1
*
  1
*
  1
*
 70
     3
  1
*
  1
*
  0
XRECORD
  5
12235
102
{ACAD_REACTORS
330
12124
102
}
330
12124
100
AcDbXrecord
280
     1
  1
OCULT
  1
*OCULT
  1
*
  1
*
 70
     0
  1
*
  1
*
  0
XRECORD
  5
12236
102
{ACAD_REACTORS
330
12124
102
}
330
12124
100
AcDbXrecord
280
     1
  1
off
  1
*
  1
*
  1
*
 70
     3
  1
*
  1
*
  0
XRECORD
  5
12237
102
{ACAD_REACTORS
330
12124
102
}
330
12124
100
AcDbXrecord
280
     1
  1
on
  1
*
  1
*
  1
*
 70
     1
  1
*
  1
*
  0
XRECORD
  5
12238
102
{ACAD_REACTORS
330
12124
102
}
330
12124
100
AcDbXrecord
280
     1
  1
outros
  1
~10*,~00*
  1
*
  1
*
 70
     0
  1
*
  1
*
  0
XRECORD
  5
12239
102
{ACAD_REACTORS
330
12124
102
}
330
12124
100
AcDbXrecord
280
     1
  1
p
  1
*
  1
*
  1
*
 70
     0
  1
*
  1
*
  0
XRECORD
  5
1223A
102
{ACAD_REACTORS
330
12124
102
}
330
12124
100
AcDbXrecord
280
     1
  1
p-
  1
p-*
  1
*
  1
*
 70
     0
  1
*
  1
*
  0
XRECORD
  5
1223B
102
{ACAD_REACTORS
330
12124
102
}
330
12124
100
AcDbXrecord
280
     1
  1
p-3
  1
10_0-3*
  1
*
  1
*
 70
     0
  1
*
  1
*
  0
XRECORD
  5
1223C
102
{ACAD_REACTORS
330
12124
102
}
330
12124
100
AcDbXrecord
280
     1
  1
PAPER
  1
*
  1
*
  1
*
 70
    12
  1
*
  1
*
  0
XRECORD
  5
1223D
102
{ACAD_REACTORS
330
12124
102
}
330
12124
100
AcDbXrecord
280
     1
  1
paredees
  1
*corte*
  1
*
  1
*
 70
     0
  1
*
  1
*
  0
XRECORD
  5
1223E
102
{ACAD_REACTORS
330
12124
102
}
330
12124
100
AcDbXrecord
280
     1
  1
paredes
  1
pa*
  1
*
  1
*
 70
     0
  1
*
  1
*
  0
XRECORD
  5
1223F
102
{ACAD_REACTORS
330
12124
102
}
330
12124
100
AcDbXrecord
280
     1
  1
PAREDES CORTE
  1
PAC*
  1
*
  1
*
 70
     0
  1
*
  1
*
  0
XRECORD
  5
12240
102
{ACAD_REACTORS
330
12124
102
}
330
12124
100
AcDbXrecord
280
     1
  1
PAREDES VISTA
  1
PAV*
  1
*
  1
*
 70
     0
  1
*
  1
*
  0
XRECORD
  5
12241
102
{ACAD_REACTORS
330
12124
102
}
330
12124
100
AcDbXrecord
280
     1
  1
parte A
  1
za*,0
  1
*
  1
*
 70
     0
  1
*
  1
*
  0
XRECORD
  5
12242
102
{ACAD_REACTORS
330
12124
102
}
330
12124
100
AcDbXrecord
280
     1
  1
Parte B
  1
*zb*
  1
*
  1
*
 70
     0
  1
*
  1
*
  0
XRECORD
  5
12243
102
{ACAD_REACTORS
330
12124
102
}
330
12124
100
AcDbXrecord
280
     1
  1
Parte C
  1
zc*
  1
*
  1
*
 70
     0
  1
*
  1
*
  0
XRECORD
  5
12244
102
{ACAD_REACTORS
330
12124
102
}
330
12124
100
AcDbXrecord
280
     1
  1
Parte D
  1
*zd*,0
  1
*
  1
*
 70
     0
  1
*
  1
*
  0
XRECORD
  5
12245
102
{ACAD_REACTORS
330
12124
102
}
330
12124
100
AcDbXrecord
280
     1
  1
Parte E
  1
*ZE*,0,L-
  1
*
  1
*
 70
     0
  1
*
  1
*
  0
XRECORD
  5
12246
102
{ACAD_REACTORS
330
12124
102
}
330
12124
100
AcDbXrecord
280
     1
  1
Parte F
  1
*ZF*,0,L-
  1
*
  1
*
 70
     0
  1
*
  1
*
  0
XRECORD
  5
12247
102
{ACAD_REACTORS
330
12124
102
}
330
12124
100
AcDbXrecord
280
     1
  1
parte g
  1
zg*,0
  1
*
  1
*
 70
     0
  1
*
  1
*
  0
XRECORD
  5
12248
102
{ACAD_REACTORS
330
12124
102
}
330
12124
100
AcDbXrecord
280
     1
  1
parte H
  1
*ZH-*
  1
*
  1
*
 70
     0
  1
*
  1
*
  0
XRECORD
  5
12249
102
{ACAD_REACTORS
330
12124
102
}
330
12124
100
AcDbXrecord
280
     1
  1
parte H2
  1
*ZH2-*
  1
*
  1
*
 70
     0
  1
*
  1
*
  0
XRECORD
  5
1224A
102
{ACAD_REACTORS
330
12124
102
}
330
12124
100
AcDbXrecord
280
     1
  1
parte i
  1
zi*,0
  1
*
  1
*
 70
     0
  1
*
  1
*
  0
XRECORD
  5
1224B
102
{ACAD_REACTORS
330
12124
102
}
330
12124
100
AcDbXrecord
280
     1
  1
parte J
  1
zj*,0
  1
*
  1
*
 70
     0
  1
*
  1
*
  0
XRECORD
  5
1224C
102
{ACAD_REACTORS
330
12124
102
}
330
12124
100
AcDbXrecord
280
     1
  1
parte J2
  1
zj2*
  1
*
  1
*
 70
     0
  1
*
  1
*
  0
XRECORD
  5
1224D
102
{ACAD_REACTORS
330
12124
102
}
330
12124
100
AcDbXrecord
280
     1
  1
pav
  1
*pav*
  1
*
  1
*
 70
     0
  1
*
  1
*
  0
XRECORD
  5
1224E
102
{ACAD_REACTORS
330
12124
102
}
330
12124
100
AcDbXrecord
280
     1
  1
PAV_GRANNDES
  1
*
  1
*
  1
*
 70
     0
  1
*
  1
*
  0
XRECORD
  5
1224F
102
{ACAD_REACTORS
330
12124
102
}
330
12124
100
AcDbXrecord
280
     1
  1
PAVIMENTOS ACABAMENTO
  1
PV*
  1
*
  1
*
 70
     0
  1
*
  1
*
  0
XRECORD
  5
12250
102
{ACAD_REACTORS
330
12124
102
}
330
12124
100
AcDbXrecord
280
     1
  1
pfgc
  1
*pfgc
  1
*
  1
*
 70
     0
  1
*
  1
*
  0
XRECORD
  5
12251
102
{ACAD_REACTORS
330
12124
102
}
330
12124
100
AcDbXrecord
280
     1
  1
pilares
  1
*pilares
  1
*
  1
*
 70
     0
  1
*
  1
*
  0
XRECORD
  5
12252
102
{ACAD_REACTORS
330
12124
102
}
330
12124
100
AcDbXrecord
280
     1
  1
PISO
  1
*PISO
  1
*
  1
*
 70
     0
  1
*
  1
*
  0
XRECORD
  5
12253
102
{ACAD_REACTORS
330
12124
102
}
330
12124
100
AcDbXrecord
280
     1
  1
Piso -1
  1
-1*
  1
*
  1
*
 70
     0
  1
*
  1
*
  0
XRECORD
  5
12254
102
{ACAD_REACTORS
330
12124
102
}
330
12124
100
AcDbXrecord
280
     1
  1
Piso -2
  1
-2*
  1
*
  1
*
 70
     0
  1
*
  1
*
  0
XRECORD
  5
12255
102
{ACAD_REACTORS
330
12124
102
}
330
12124
100
AcDbXrecord
280
     1
  1
piso -3
  1
-3*
  1
*
  1
*
 70
     0
  1
*
  1
*
  0
XRECORD
  5
12256
102
{ACAD_REACTORS
330
12124
102
}
330
12124
100
AcDbXrecord
280
     1
  1
piso -4
  1
-4*
  1
*
  1
*
 70
     0
  1
*
  1
*
  0
XRECORD
  5
12257
102
{ACAD_REACTORS
330
12124
102
}
330
12124
100
AcDbXrecord
280
     1
  1
Piso 0
  1
0-*
  1
*
  1
*
 70
     0
  1
*
  1
*
  0
XRECORD
  5
12258
102
{ACAD_REACTORS
330
12124
102
}
330
12124
100
AcDbXrecord
280
     1
  1
Piso 1
  1
1-*
  1
*
  1
*
 70
     0
  1
*
  1
*
  0
XRECORD
  5
12259
102
{ACAD_REACTORS
330
12124
102
}
330
12124
100
AcDbXrecord
280
     1
  1
piso 2
  1
2*
  1
*
  1
*
 70
     0
  1
*
  1
*
  0
XRECORD
  5
1225A
102
{ACAD_REACTORS
330
12124
102
}
330
12124
100
AcDbXrecord
280
     1
  1
piso 3
  1
3*
  1
*
  1
*
 70
     0
  1
*
  1
*
  0
XRECORD
  5
1225B
102
{ACAD_REACTORS
330
12124
102
}
330
12124
100
AcDbXrecord
280
     1
  1
piso 4
  1
4*
  1
*
  1
*
 70
     0
  1
*
  1
*
  0
XRECORD
  5
1225C
102
{ACAD_REACTORS
330
12124
102
}
330
12124
100
AcDbXrecord
280
     1
  1
piso técnico
  1
t*
  1
*
  1
*
 70
     0
  1
*
  1
*
  0
XRECORD
  5
1225D
102
{ACAD_REACTORS
330
12124
102
}
330
12124
100
AcDbXrecord
280
     1
  1
PISO-1
  1
P-1*
  1
*
  1
*
 70
     0
  1
*
  1
*
  0
XRECORD
  5
1225E
102
{ACAD_REACTORS
330
12124
102
}
330
12124
100
AcDbXrecord
280
     1
  1
piso0
  1
0*
  1
*
  1
*
 70
     0
  1
*
  1
*
  0
XRECORD
  5
1225F
102
{ACAD_REACTORS
330
12124
102
}
330
12124
100
AcDbXrecord
280
     1
  1
piso1
  1
1*
  1
*
  1
*
 70
     0
  1
*
  1
*
  0
XRECORD
  5
12260
102
{ACAD_REACTORS
330
12124
102
}
330
12124
100
AcDbXrecord
280
     1
  1
piso2
  1
2*
  1
*
  1
*
 70
     0
  1
*
  1
*
  0
XRECORD
  5
12261
102
{ACAD_REACTORS
330
12124
102
}
330
12124
100
AcDbXrecord
280
     1
  1
piso5
  1
5*
  1
*
  1
*
 70
     0
  1
*
  1
*
  0
XRECORD
  5
12262
102
{ACAD_REACTORS
330
12124
102
}
330
12124
100
AcDbXrecord
280
     1
  1
PISOS
  1
P*
  1
*
  1
*
 70
     0
  1
*
  1
*
  0
XRECORD
  5
12263
102
{ACAD_REACTORS
330
12124
102
}
330
12124
100
AcDbXrecord
280
     1
  1
PL-T
  1
PL-T*
  1
*
  1
*
 70
     0
  1
*
  1
*
  0
XRECORD
  5
12264
102
{ACAD_REACTORS
330
12124
102
}
330
12124
100
AcDbXrecord
280
     1
  1
PLANTAS
  1
110-*
  1
*
  1
*
 70
     0
  1
*
  1
*
  0
XRECORD
  5
12265
102
{ACAD_REACTORS
330
12124
102
}
330
12124
100
AcDbXrecord
280
     1
  1
plot
  1
*
  1
*
  1
*
 70
  1024
  1
*
  1
*
  0
XRECORD
  5
12266
102
{ACAD_REACTORS
330
12124
102
}
330
12124
100
AcDbXrecord
280
     1
  1
POLYLINES
  1
*POL*
  1
*
  1
*
 70
     0
  1
*
  1
*
  0
XRECORD
  5
12267
102
{ACAD_REACTORS
330
12124
102
}
330
12124
100
AcDbXrecord
280
     1
  1
por
  1
*por*
  1
*
  1
*
 70
     0
  1
*
  1
*
  0
XRECORD
  5
12268
102
{ACAD_REACTORS
330
12124
102
}
330
12124
100
AcDbXrecord
280
     1
  1
PORTAS
  1
*POR*
  1
*
  1
*
 70
     0
  1
*
  1
*
  0
XRECORD
  5
12269
102
{ACAD_REACTORS
330
12124
102
}
330
12124
100
AcDbXrecord
280
     1
  1
PRE-
  1
PRE-*
  1
*
  1
*
 70
     0
  1
*
  1
*
  0
XRECORD
  5
1226A
102
{ACAD_REACTORS
330
12124
102
}
330
12124
100
AcDbXrecord
280
     1
  1
Progetto
  1
3d-progetto*
  1
*
  1
*
 70
     0
  1
*
  1
*
  0
XRECORD
  5
1226B
102
{ACAD_REACTORS
330
12124
102
}
330
12124
100
AcDbXrecord
280
     1
  1
quote
  1
quote*
  1
*
  1
*
 70
     0
  1
*
  1
*
  0
XRECORD
  5
1226C
102
{ACAD_REACTORS
330
12124
102
}
330
12124
100
AcDbXrecord
280
     1
  1
RAM
  1
RAM*
  1
*
  1
*
 70
     0
  1
*
  1
*
  0
XRECORD
  5
1226D
102
{ACAD_REACTORS
330
12124
102
}
330
12124
100
AcDbXrecord
280
     1
  1
rasantes
  1
ras*
  1
*
  1
*
 70
     0
  1
*
  1
*
  0
XRECORD
  5
1226E
102
{ACAD_REACTORS
330
12124
102
}
330
12124
100
AcDbXrecord
280
     1
  1
reb
  1
*reb*
  1
*
  1
*
 70
     0
  1
*
  1
*
  0
XRECORD
  5
1226F
102
{ACAD_REACTORS
330
12124
102
}
330
12124
100
AcDbXrecord
280
     1
  1
red
  1
*
  1
1
  1
*
 70
     0
  1
*
  1
*
  0
XRECORD
  5
12270
102
{ACAD_REACTORS
330
12124
102
}
330
12124
100
AcDbXrecord
280
     1
  1
ref
  1
*ref
  1
*
  1
*
 70
     0
  1
*
  1
*
  0
XRECORD
  5
12271
102
{ACAD_REACTORS
330
12124
102
}
330
12124
100
AcDbXrecord
280
     1
  1
reguas
  1
*-regua
  1
*
  1
*
 70
     0
  1
*
  1
*
  0
XRECORD
  5
12272
102
{ACAD_REACTORS
330
12124
102
}
330
12124
100
AcDbXrecord
280
     1
  1
REVESTIMENTOS ACABAMENTOS
  1
REV*
  1
*
  1
*
 70
     0
  1
*
  1
*
  0
XRECORD
  5
12273
102
{ACAD_REACTORS
330
12124
102
}
330
12124
100
AcDbXrecord
280
     1
  1
risco
  1
risco*
  1
*
  1
*
 70
     0
  1
*
  1
*
  0
XRECORD
  5
12274
102
{ACAD_REACTORS
330
12124
102
}
330
12124
100
AcDbXrecord
280
     1
  1
RRR
  1
*
  1
253
  1
*
 70
     0
  1
*
  1
*
  0
XRECORD
  5
12275
102
{ACAD_REACTORS
330
12124
102
}
330
12124
100
AcDbXrecord
280
     1
  1
seny_horit
  1
*|529
  1
*
  1
*
 70
     0
  1
*
  1
*
  0
XRECORD
  5
12276
102
{ACAD_REACTORS
330
12124
102
}
330
12124
100
AcDbXrecord
280
     1
  1
Sezioni
  1
Sez*
  1
*
  1
*
 70
     0
  1
*
  1
*
  0
XRECORD
  5
12277
102
{ACAD_REACTORS
330
12124
102
}
330
12124
100
AcDbXrecord
280
     1
  1
som
  1
*som*
  1
*
  1
*
 70
     0
  1
*
  1
*
  0
XRECORD
  5
12278
102
{ACAD_REACTORS
330
12124
102
}
330
12124
100
AcDbXrecord
280
     1
  1
SOMBRAS
  1
*som*
  1
*
  1
*
 70
     0
  1
*
  1
*
  0
XRECORD
  5
12279
102
{ACAD_REACTORS
330
12124
102
}
330
12124
100
AcDbXrecord
280
     1
  1
sta
  1
sta*
  1
*
  1
*
 70
     0
  1
*
  1
*
  0
XRECORD
  5
1227A
102
{ACAD_REACTORS
330
12124
102
}
330
12124
100
AcDbXrecord
280
     1
  1
struttura
  1
struttura*
  1
*
  1
*
 70
     0
  1
*
  1
*
  0
XRECORD
  5
1227B
102
{ACAD_REACTORS
330
12124
102
}
330
12124
100
AcDbXrecord
280
     1
  1
SUB
  1
SUB*
  1
*
  1
*
 70
     0
  1
*
  1
*
  0
XRECORD
  5
1227C
102
{ACAD_REACTORS
330
12124
102
}
330
12124
100
AcDbXrecord
280
     1
  1
sumidouro
  1
sumidouro*
  1
*
  1
*
 70
     0
  1
*
  1
*
  0
XRECORD
  5
1227D
102
{ACAD_REACTORS
330
12124
102
}
330
12124
100
AcDbXrecord
280
     1
  1
superfici
  1
3d-surf*
  1
*
  1
*
 70
     0
  1
*
  1
*
  0
XRECORD
  5
1227E
102
{ACAD_REACTORS
330
12124
102
}
330
12124
100
AcDbXrecord
280
     1
  1
SYM
  1
SYM*
  1
*
  1
*
 70
     0
  1
*
  1
*
  0
XRECORD
  5
1227F
102
{ACAD_REACTORS
330
12124
102
}
330
12124
100
AcDbXrecord
280
     1
  1
T
  1
TITULOS
  1
*
  1
*
 70
     0
  1
*
  1
*
  0
XRECORD
  5
12280
102
{ACAD_REACTORS
330
12124
102
}
330
12124
100
AcDbXrecord
280
     1
  1
TEC
  1
*TEC*
  1
*
  1
*
 70
     0
  1
*
  1
*
  0
XRECORD
  5
12281
102
{ACAD_REACTORS
330
12124
102
}
330
12124
100
AcDbXrecord
280
     1
  1
TEMP
  1
*|*TXT,*|*HAT*POL,*|*COT,*|*COT,*|*POR,*|*CTA,*|*EST
  1
*
  1
*
 70
     0
  1
*
  1
*
  0
XRECORD
  5
12282
102
{ACAD_REACTORS
330
12124
102
}
330
12124
100
AcDbXrecord
280
     1
  1
test
  1
*
  1
*
  1
*
 70
     4
  1
*
  1
*
  0
XRECORD
  5
12283
102
{ACAD_REACTORS
330
12124
102
}
330
12124
100
AcDbXrecord
280
     1
  1
text
  1
*texto*
  1
*
  1
*
 70
     0
  1
*
  1
*
  0
XRECORD
  5
12284
102
{ACAD_REACTORS
330
12124
102
}
330
12124
100
AcDbXrecord
280
     1
  1
text100
  1
*texto100*
  1
*
  1
*
 70
     0
  1
*
  1
*
  0
XRECORD
  5
12285
102
{ACAD_REACTORS
330
12124
102
}
330
12124
100
AcDbXrecord
280
     1
  1
text200
  1
*texto200*
  1
*
  1
*
 70
     0
  1
*
  1
*
  0
XRECORD
  5
12286
102
{ACAD_REACTORS
330
12124
102
}
330
12124
100
AcDbXrecord
280
     1
  1
TEXTO
  1
TE*
  1
*
  1
*
 70
     0
  1
*
  1
*
  0
XRECORD
  5
12287
102
{ACAD_REACTORS
330
12124
102
}
330
12124
100
AcDbXrecord
280
     1
  1
TEXTOS
  1
TEXT*
  1
*
  1
*
 70
     0
  1
*
  1
*
  0
XRECORD
  5
12288
102
{ACAD_REACTORS
330
12124
102
}
330
12124
100
AcDbXrecord
280
     1
  1
tha on
  1
*
  1
*
  1
*
 70
    13
  1
*
  1
*
  0
XRECORD
  5
12289
102
{ACAD_REACTORS
330
12124
102
}
330
12124
100
AcDbXrecord
280
     1
  1
THAWED
  1
*
  1
*
  1
*
 70
    12
  1
*
  1
*
  0
XRECORD
  5
1228A
102
{ACAD_REACTORS
330
12124
102
}
330
12124
100
AcDbXrecord
280
     1
  1
todas
  1
*todas
  1
*
  1
*
 70
     0
  1
*
  1
*
  0
XRECORD
  5
1228B
102
{ACAD_REACTORS
330
12124
102
}
330
12124
100
AcDbXrecord
280
     1
  1
Todas-ON THAW
  1
*
  1
*
  1
*
 70
    13
  1
*
  1
*
  0
XRECORD
  5
1228C
102
{ACAD_REACTORS
330
12124
102
}
330
12124
100
AcDbXrecord
280
     1
  1
todos os a-
  1
a-*
  1
*
  1
*
 70
     0
  1
*
  1
*
  0
XRECORD
  5
1228D
102
{ACAD_REACTORS
330
12124
102
}
330
12124
100
AcDbXrecord
280
     1
  1
todos os a_
  1
a_*
  1
*
  1
*
 70
     0
  1
*
  1
*
  0
XRECORD
  5
1228E
102
{ACAD_REACTORS
330
12124
102
}
330
12124
100
AcDbXrecord
280
     1
  1
TOP
  1
TOP*
  1
*
  1
*
 70
    12
  1
*
  1
*
  0
XRECORD
  5
1228F
102
{ACAD_REACTORS
330
12124
102
}
330
12124
100
AcDbXrecord
280
     1
  1
Total
  1
*
  1
*
  1
*
 70
     0
  1
*
  1
*
  0
XRECORD
  5
12290
102
{ACAD_REACTORS
330
12124
102
}
330
12124
100
AcDbXrecord
280
     1
  1
TR
  1
TR*
  1
*
  1
*
 70
     0
  1
*
  1
*
  0
XRECORD
  5
12291
102
{ACAD_REACTORS
330
12124
102
}
330
12124
100
AcDbXrecord
280
     1
  1
trab
  1
prd,lf
  1
*
  1
*
 70
     1
  1
*
  1
*
  0
XRECORD
  5
12292
102
{ACAD_REACTORS
330
12124
102
}
330
12124
100
AcDbXrecord
280
     1
  1
Trabalho executado pela XIX
  1
XIX*
  1
*
  1
*
 70
     0
  1
*
  1
*
  0
XRECORD
  5
12293
102
{ACAD_REACTORS
330
12124
102
}
330
12124
100
AcDbXrecord
280
     1
  1
TRACEJADOS
  1
M1-*-N
  1
*
  1
*
 70
     0
  1
*
  1
*
  0
XRECORD
  5
12294
102
{ACAD_REACTORS
330
12124
102
}
330
12124
100
AcDbXrecord
280
     1
  1
tramas
  1
*h
  1
*
  1
*
 70
     0
  1
*
  1
*
  0
XRECORD
  5
12295
102
{ACAD_REACTORS
330
12124
102
}
330
12124
100
AcDbXrecord
280
     1
  1
TTE
  1
*TTE*
  1
*
  1
*
 70
     0
  1
*
  1
*
  0
XRECORD
  5
12296
102
{ACAD_REACTORS
330
12124
102
}
330
12124
100
AcDbXrecord
280
     1
  1
TXT
  1
*-TXT
  1
*
  1
*
 70
     0
  1
*
  1
*
  0
XRECORD
  5
12297
102
{ACAD_REACTORS
330
12124
102
}
330
12124
100
AcDbXrecord
280
     1
  1
unfreeze
  1
*
  1
*
  1
*
 70
    12
  1
*
  1
*
  0
XRECORD
  5
12298
102
{ACAD_REACTORS
330
12124
102
}
330
12124
100
AcDbXrecord
280
     1
  1
USED
  1
*
  1
*
  1
*
 70
    12
  1
*
  1
*
  0
XRECORD
  5
12299
102
{ACAD_REACTORS
330
12124
102
}
330
12124
100
AcDbXrecord
280
     1
  1
verde
  1
*
  1
green
  1
*
 70
     0
  1
*
  1
*
  0
XRECORD
  5
1229A
102
{ACAD_REACTORS
330
12124
102
}
330
12124
100
AcDbXrecord
280
     1
  1
VERDES
  1
*
  1
3
  1
*
 70
     0
  1
*
  1
*
  0
XRECORD
  5
1229B
102
{ACAD_REACTORS
330
12124
102
}
330
12124
100
AcDbXrecord
280
     1
  1
vi2
  1
*vi2
  1
*
  1
*
 70
     0
  1
*
  1
*
  0
XRECORD
  5
1229C
102
{ACAD_REACTORS
330
12124
102
}
330
12124
100
AcDbXrecord
280
     1
  1
vid
  1
*vid
  1
*
  1
*
 70
     0
  1
*
  1
*
  0
XRECORD
  5
1229D
102
{ACAD_REACTORS
330
12124
102
}
330
12124
100
AcDbXrecord
280
     1
  1
VIDROS
  1
*VID*
  1
*
  1
*
 70
     0
  1
*
  1
*
  0
XRECORD
  5
1229E
102
{ACAD_REACTORS
330
12124
102
}
330
12124
100
AcDbXrecord
280
     1
  1
Viewport
  1
View*
  1
*
  1
*
 70
     0
  1
*
  1
*
  0
XRECORD
  5
1229F
102
{ACAD_REACTORS
330
12124
102
}
330
12124
100
AcDbXrecord
280
     1
  1
vincos
  1
vincos*
  1
*
  1
*
 70
     0
  1
*
  1
*
  0
XRECORD
  5
122A0
102
{ACAD_REACTORS
330
12124
102
}
330
12124
100
AcDbXrecord
280
     1
  1
VIPS
  1
*VIP
  1
*
  1
*
 70
     0
  1
*
  1
*
  0
XRECORD
  5
122A1
102
{ACAD_REACTORS
330
12124
102
}
330
12124
100
AcDbXrecord
280
     1
  1
vis
  1
*vis
  1
*
  1
*
 70
     0
  1
*
  1
*
  0
XRECORD
  5
122A2
102
{ACAD_REACTORS
330
12124
102
}
330
12124
100
AcDbXrecord
280
     1
  1
VP Freeze
  1
*
  1
*
  1
*
 70
    16
  1
*
  1
*
  0
XRECORD
  5
122A3
102
{ACAD_REACTORS
330
12124
102
}
330
12124
100
AcDbXrecord
280
     1
  1
Web
  1
Web*
  1
*
  1
*
 70
     0
  1
*
  1
*
  0
XRECORD
  5
122A4
102
{ACAD_REACTORS
330
12124
102
}
330
12124
100
AcDbXrecord
280
     1
  1
XR_0
  1
*0_*
  1
*
  1
*
 70
     0
  1
*
  1
*
  0
XRECORD
  5
122A5
102
{ACAD_REACTORS
330
12124
102
}
330
12124
100
AcDbXrecord
280
     1
  1
xref
  1
xref*
  1
*
  1
*
 70
     0
  1
*
  1
*
  0
XRECORD
  5
122A6
102
{ACAD_REACTORS
330
12124
102
}
330
12124
100
AcDbXrecord
280
     1
  1
XREF PISO -1
  1
*001*
  1
*
  1
*
 70
     0
  1
*
  1
*
  0
XRECORD
  5
122A7
102
{ACAD_REACTORS
330
12124
102
}
330
12124
100
AcDbXrecord
280
     1
  1
XREF PISO 0
  1
*002*
  1
*
  1
*
 70
     0
  1
*
  1
*
  0
XRECORD
  5
122A8
102
{ACAD_REACTORS
330
12124
102
}
330
12124
100
AcDbXrecord
280
     1
  1
XREF PISO 1
  1
*003*
  1
*
  1
*
 70
     0
  1
*
  1
*
  0
XRECORD
  5
122A9
102
{ACAD_REACTORS
330
12124
102
}
330
12124
100
AcDbXrecord
280
     1
  1
XREF PISO 2
  1
*004*
  1
*
  1
*
 70
     0
  1
*
  1
*
  0
XRECORD
  5
122AA
102
{ACAD_REACTORS
330
12124
102
}
330
12124
100
AcDbXrecord
280
     1
  1
yellow
  1
*
  1
yellow
  1
*
 70
     0
  1
*
  1
*
  0
XRECORD
  5
122AB
102
{ACAD_REACTORS
330
12124
102
}
330
12124
100
AcDbXrecord
280
     1
  1
z1
  1
z1*
  1
*
  1
*
 70
     0
  1
*
  1
*
  0
XRECORD
  5
122AC
102
{ACAD_REACTORS
330
12124
102
}
330
12124
100
AcDbXrecord
280
     1
  1
z2
  1
z2*
  1
*
  1
*
 70
     0
  1
*
  1
*
  0
XRECORD
  5
122AD
102
{ACAD_REACTORS
330
12124
102
}
330
12124
100
AcDbXrecord
280
     1
  1
Z3_L_DASH
  1
*Z3_L*_*|DASH*
  1
*
  1
*
 70
     0
  1
*
  1
*
  0
XRECORD
  5
122AE
102
{ACAD_REACTORS
330
12124
102
}
330
12124
100
AcDbXrecord
280
     1
  1
Z3_L_DIM
  1
*Z3_L*_*|DIM*
  1
*
  1
*
 70
     0
  1
*
  1
*
  0
XRECORD
  5
122AF
102
{ACAD_REACTORS
330
12124
102
}
330
12124
100
AcDbXrecord
280
     1
  1
Z3_L_LEGENDA
  1
*Z3_L*_*|LEGENDA*
  1
*
  1
*
 70
     0
  1
*
  1
*
  0
XRECORD
  5
122B0
102
{ACAD_REACTORS
330
12124
102
}
330
12124
100
AcDbXrecord
280
     1
  1
Z5_L_AREAS
  1
*Z5_L*_*|AREAS*
  1
*
  1
*
 70
     0
  1
*
  1
*
  0
XRECORD
  5
122B1
102
{ACAD_REACTORS
330
12124
102
}
330
12124
100
AcDbXrecord
280
     1
  1
Z5_L_DASH
  1
*Z5_L*_*|DASH*
  1
*
  1
*
 70
     0
  1
*
  1
*
  0
XRECORD
  5
122B2
102
{ACAD_REACTORS
330
12124
102
}
330
12124
100
AcDbXrecord
280
     1
  1
Z5_L_DIM
  1
*Z5_L*_*|DIM*
  1
*
  1
*
 70
     0
  1
*
  1
*
  0
XRECORD
  5
122B3
102
{ACAD_REACTORS
330
12124
102
}
330
12124
100
AcDbXrecord
280
     1
  1
Z5_L_EIXOS
  1
*Z5_L*_*|EIXOS*
  1
*
  1
*
 70
     0
  1
*
  1
*
  0
XRECORD
  5
122B4
102
{ACAD_REACTORS
330
12124
102
}
330
12124
100
AcDbXrecord
280
     1
  1
Z5_L_HATCH
  1
*Z5_L*_*|HATCH*
  1
*
  1
*
 70
     0
  1
*
  1
*
  0
XRECORD
  5
122B5
102
{ACAD_REACTORS
330
12124
102
}
330
12124
100
AcDbXrecord
280
     1
  1
Z5_L_HIDDEN
  1
*Z5_L*_*|HIDDEN*
  1
*
  1
*
 70
     0
  1
*
  1
*
  0
XRECORD
  5
122B6
102
{ACAD_REACTORS
330
12124
102
}
330
12124
100
AcDbXrecord
280
     1
  1
Z5_L_PAVIMENTOS
  1
*Z5_L*_*|PAVIMENTOS*
  1
*
  1
*
 70
     0
  1
*
  1
*
  0
XRECORD
  5
122B7
102
{ACAD_REACTORS
330
12124
102
}
330
12124
100
AcDbXrecord
280
     1
  1
Z5_L_PILARES
  1
*Z5_L*_*|PILARES*
  1
*
  1
*
 70
     0
  1
*
  1
*
  0
XRECORD
  5
122B8
102
{ACAD_REACTORS
330
12124
102
}
330
12124
100
AcDbXrecord
280
     1
  1
Z5_L_PORTAS
  1
*Z5_L*_*|PORTAS*
  1
*
  1
*
 70
     0
  1
*
  1
*
  0
XRECORD
  5
122B9
102
{ACAD_REACTORS
330
12124
102
}
330
12124
100
AcDbXrecord
280
     1
  1
Z5_L_TEXTO
  1
*Z5_L*_*|TEXTO*
  1
*
  1
*
 70
     0
  1
*
  1
*
  0
XRECORD
  5
122BA
102
{ACAD_REACTORS
330
12124
102
}
330
12124
100
AcDbXrecord
280
     1
  1
Z5_L_VARANDAS
  1
*Z5_L*_*|VARANDAS*
  1
*
  1
*
 70
     0
  1
*
  1
*
  0
XRECORD
  5
122BB
102
{ACAD_REACTORS
330
12124
102
}
330
12124
100
AcDbXrecord
280
     1
  1
Z7_L_ALÇADOS
  1
Z7_L*_ALÇADO_PRINCIPAL|*
  1
*
  1
*
 70
     0
  1
*
  1
*
  0
XRECORD
  5
122BC
102
{ACAD_REACTORS
330
12124
102
}
330
12124
100
AcDbXrecord
280
     1
  1
Z7_L_PILARES
  1
Z7_L*_*|PILARES
  1
*
  1
*
 70
     0
  1
*
  1
*
  0
XRECORD
  5
122BD
102
{ACAD_REACTORS
330
12124
102
}
330
12124
100
AcDbXrecord
280
     1
  1
Z_DIM
  1
Z*_L*|DIM
  1
*
  1
*
 70
     0
  1
*
  1
*
  0
XRECORD
  5
122BE
102
{ACAD_REACTORS
330
12124
102
}
330
12124
100
AcDbXrecord
280
     1
  1
Z_LEGENDA
  1
Z*_L*|LEGENDA
  1
*
  1
*
 70
     0
  1
*
  1
*
  0
XRECORD
  5
122BF
102
{ACAD_REACTORS
330
12124
102
}
330
12124
100
AcDbXrecord
280
     1
  1
ZG
  1
*Z-G*
  1
*
  1
*
 70
     0
  1
*
  1
*
  0
DICTIONARY
  5
10DA0
330
22
100
AcDbDictionary
280
     1
281
     1
  3
ACAD_XREC_ROUNDTRIP
360
10DA1
  0
XRECORD
  5
10DA1
102
{ACAD_REACTORS
330
10DA0
102
}
330
10DA0
100
AcDbXrecord
280
     1
102
SHADEPLOT
 70
     0
102
SHADEPLOTRESLEVEL
 70
     2
102
SHADEPLOTCUSTOMDPI
 70
   300
  0
ENDSEC
  0
EOF
